<?xml version="1.0" standalone="no"?>
<!DOCTYPE svg PUBLIC "-//W3C//DTD SVG 1.1//EN" "http://www.w3.org/Graphics/SVG/1.1/DTD/svg11.dtd" >
<svg xmlns="http://www.w3.org/2000/svg">
<metadata>
This is a custom SVG webfont generated by Font Squirrel.
Copyright   : Copyright  2002 Font Diner   httpwwwfontdinercom
</metadata>
<defs>
<font id="LeftoversRegular" horiz-adv-x="806" >
<font-face units-per-em="2048" ascent="1638" descent="-410" />
<missing-glyph horiz-adv-x="471" />
<glyph unicode=" "  horiz-adv-x="471" />
<glyph unicode="&#x09;" horiz-adv-x="471" />
<glyph unicode="&#xa0;" horiz-adv-x="471" />
<glyph unicode="!" horiz-adv-x="241" d="M16 4q4 25 29 46.5t53 21.5q33 0 45 -15q6 -16 20.5 -40.5t2.5 -34.5q-8 -16 -31 -45q-14 -12 -41 -3q-78 33 -78 70zM41 215q0 18 5 53t5 51q0 127 21 334q2 35 -4.5 99.5t-4.5 95.5q8 49 21 149q-2 35 -2 103q6 45 31 55q29 12 55 0q14 -8 16 -29q0 -8 -1 -25.5 t-11 -53.5q-6 -18 -6 -39q0 -12 2 -37q8 -59 4 -148l-8 -147q4 -43 8 -131q-6 -14 -14 -47q-2 -10 4 -31t6 -27q2 -23 -6 -59q-10 -47 -10 -57l-5 -70q-2 -43 -14 -66.5t-57 -15.5q-33 4 -35 43z" />
<glyph unicode="&#x22;" horiz-adv-x="337" d="M16 1069q6 20 17 66q-6 20 -2 55q16 29 80 14q14 -4 16 -12q-2 -8 0 -18q2 -2 -6 -13.5t-8 -21.5q0 -6 6 -20.5t6 -18.5q2 -6 -2 -74q8 -41 14 -90q-6 -6 -12 -21q6 -10 12 -32l-12 -43q-2 -18 -10 -56q-4 -8 -31 -10q-41 -4 -61 10q-8 6 -5 25q6 25 7 29q-2 63 8 145 q-9 29 -17 86zM201 1069q6 20 16 66q-6 20 -2 55q16 29 80 14q14 -4 16 -12q-2 -8 0 -18q2 -2 -6 -13.5t-8 -21.5q0 -6 6 -20.5t6 -18.5q2 -6 -2 -74q8 -41 15 -90q-6 -6 -13 -21q6 -10 13 -32l-13 -43q-2 -18 -10 -56q-4 -8 -31 -10q-41 -4 -61 10q-8 6 -4 25q6 25 6 29 q-2 63 8 145q-8 29 -16 86z" />
<glyph unicode="#" horiz-adv-x="802" d="M16 313q0 31 17 41q8 4 24 2q10 0 43 -8q12 -6 27 -6q10 0 43 6q8 45 14 137q-4 31 -6 78q0 6 6 15q-14 4 -24 4q2 0 -58 -4q-33 -2 -48 13t-15 44t18 39q6 6 25 4q8 0 41 -10q12 -4 27 -4q12 -2 36 4q16 55 25 108q2 14 12 41q20 27 64 6q23 -12 26 -26q2 -14 -4 -39 q-6 -31 -7 -42t-3 -42q25 -2 70 -2q41 6 110 12q10 -4 31 -10q12 41 22 102q0 14 11 41q20 27 65 6q23 -12 25 -26q4 -14 -2 -39q-8 -31 -8 -43.5t-2 -40.5l2 -2q10 -2 71 -6q14 0 41 -9q29 -18 10 -63q-8 -25 -22 -29q-27 4 -80 6h-33q-6 -49 -14 -92q4 -43 6 -127 q10 -2 70 -8q14 0 41 -8q29 -18 10 -64q-8 -23 -25 -26q-25 2 -77 4h-41q0 -6 -2 -66q0 -41 -16.5 -55t-45.5 -12t-39 20q-4 8 0 25q-2 6 12 41q8 18 7 41v8q-53 2 -115 8q-23 2 -62 -6q-47 -8 -61 -8v-64q0 -39 -16.5 -53t-44.5 -12q-31 2 -39 20q-4 8 -2 25q0 6 12 41 q10 18 8 41q0 2 -2 12q-23 4 -37 4q2 0 -57 -4q-33 -2 -48.5 13t-15.5 44zM276 479q2 -41 5 -125q23 -2 65 -4q41 8 111 12q12 -4 35 -10q6 43 14 133q-4 31 -8 78q2 4 4 10q-49 2 -96 7q-25 2 -60 -5q-49 -8 -57 -10q-7 -47 -13 -86z" />
<glyph unicode="$" horiz-adv-x="706" d="M16 760q2 63 52 135q16 25 67 70q53 31 133 36q-6 39 -4 62q2 53 27.5 69.5t52.5 2.5q18 -8 18 -41q2 -6 0 -25q6 -4 3 -45q-4 -6 -9 -18v-5q90 -10 146 -43q119 -72 123 -215q0 -45 -35 -53q-16 -6 -27 2q-18 6 -33 49q-8 31 -34 88q-39 57 -134 66q2 -20 15 -311 q57 -16 168 -60q45 -25 75.5 -73t28.5 -97q0 -98 -76 -166q-68 -59 -182 -73v-62q0 -23 -6 -67q-10 -29 -55 -23q-35 2 -39 57q2 -20 2 95q-90 14 -142.5 62t-52.5 102q-2 16 8 26q16 20 46 10q20 -6 47.5 -40.5t46.5 -43.5q2 0 9 -3t24 -9l10 -4q-4 121 -2 299 q-131 43 -191 92q-82 68 -80 154zM127 762q0 -39 20 -68q37 -49 134 -84q-8 51 -17 152q-2 20 6 129q-61 -10 -102 -39t-41 -90zM385 354q0 -12 7 -34.5t9 -32.5q2 -27 -4 -88q68 12 109 59q37 41 35 94q0 47 -54 82q-37 23 -98 45q6 -41 6 -65q0 -10 -4 -30z" />
<glyph unicode="%" horiz-adv-x="903" d="M16 864q0 119 21 168q6 14 45 60q12 18 39 49q37 31 80 28q45 -4 80 -34q59 -55 79 -158q4 -20 5 -98q0 -18 2 -46t2 -32q-4 -16 -11 -49v-9q-2 -4 -41 -67q-63 -106 -129 -107q-72 0 -114 68q-58 86 -58 227zM106 862q0 -88 50 -151q10 -16 34 -41q23 -12 43 24 q12 23 31 90.5t19 77.5q0 12 -6.5 30.5t-6.5 20.5q-4 31 -20 91q-20 49 -51 51q-27 0 -56 -56q-37 -69 -37 -137zM125 98q18 35 55 103q66 141 185 362q20 37 46.5 112t43.5 107q33 51 94 158q14 39 49 113q27 49 55 51q33 2 52 -23q12 -20 -15 -67q-8 -14 -37 -56 q-25 -31 -41 -81q-23 -68 -69 -164l-82 -160q-16 -51 -58 -150q-12 -14 -34 -47q-6 -23 -21 -67q-25 -41 -74 -121q-2 -6 -47 -86q-10 -23 -37 -59q-23 -20 -56.5 2t-8.5 73zM494 307q0 119 20 168q6 14 45 57q12 18 39 52q37 31 80 28q47 -4 84 -39q55 -55 76 -153 q2 -39 4 -101q4 -80 4 -75q-2 -16 -10 -49v-9q-2 -4 -41 -69q-63 -104 -129 -107q-70 0 -115 70q-57 86 -57 227zM584 305q0 -90 49 -151q10 -16 35 -41q23 -12 43 24q12 23 31 93l20 71q-6 20 -12.5 53t-22.5 92q-20 49 -51 50q-27 2 -55 -54q-37 -69 -37 -137z" />
<glyph unicode="&#x26;" horiz-adv-x="880" d="M16 215q0 106 72 229q53 96 170 232q-121 195 -119 319q0 86 74 146q63 49 147 49q90 0 145.5 -58.5t55.5 -152.5q0 -59 -43 -129q-14 -25 -86 -117q-25 -31 -55 -71q78 -135 241 -338l41 -54q20 31 40 70t30 51q20 29 45 35q20 6 27 -8q8 -18 -4 -78q-14 -70 -68 -150 l-4 -4q31 -43 53 -77l29 -41q20 -29 16 -41q-2 -4 -18.5 -17.5t-22.5 -15.5q-12 -2 -69 55q-23 20 -49 53q-61 -72 -134 -116q-100 -63 -211 -66q-139 0 -221 81t-82 214zM129 215q4 -86 49 -131q49 -55 141 -59q76 -4 147 36.5t134 122.5q-4 4 -10 12.5t-17 18.5 q-47 74 -145 217q-37 51 -109 152l-69 -95q-39 -45 -100 -143q-25 -57 -21 -131zM248 995q4 -94 80 -239q66 76 98 123q45 66 45 100q0 55 -28.5 86t-82.5 27q-39 -4 -75.5 -33t-36.5 -64z" />
<glyph unicode="'" horiz-adv-x="194" d="M16 1069q6 20 17 66q-6 20 -2 55q16 29 80 14q14 -4 16 -12q-2 -8 0 -18q2 -2 -6 -13.5t-8 -21.5q0 -6 6 -20.5t6 -18.5q2 -6 -2 -74q8 -41 14 -90q-6 -6 -12 -21q6 -10 12 -32l-12 -43q-2 -18 -10 -56q-4 -8 -31 -10q-41 -4 -61 10q-8 6 -5 25q6 25 7 29q-2 63 8 145 q-9 29 -17 86z" />
<glyph unicode="(" horiz-adv-x="419" d="M25 561q-4 88 6 260q6 41 78 223q18 51 63 148q25 41 47 53q31 16 60 -8q20 -16 6 -49q-12 -18 -35 -60q-2 -8 -10.5 -19t-26.5 -36q-25 -39 -43 -129q-57 -281 -55 -383q0 -55 8 -98q8 -29 20 -82q-2 -29 4 -84q16 -27 41 -84q10 -37 37 -111q31 -61 78 -116 q20 -18 51 -58q4 -12 -4 -37q-4 -14 -14 -22q-27 -18 -68 13.5t-78 84.5q-100 152 -133 277q-36 133 -32 317z" />
<glyph unicode=")" horiz-adv-x="378" d="M25 -72q0 2 49 57.5t78 116.5l36 111q16 27 41 84q2 29 7 84q10 39 24 119q2 29 4 61q0 102 -55 383q-18 90 -43 129q-10 10 -26.5 35t-12.5 20q-12 18 -35 60q-14 33 8 49q27 25 60 8q20 -12 47 -53q12 -23 61 -148q33 -72 80 -223q8 -51 6 -129q0 -141 0 -131 q2 -184 -32 -317q-35 -125 -136 -277q-35 -53 -76.5 -85t-68.5 -13q-8 8 -12 22q-8 25 -4 37z" />
<glyph unicode="*" horiz-adv-x="557" d="M16 449q-2 12 9 18q8 0 16 8q0 6 10 6q2 0 6 -2t6 -2q16 0 35 19q29 29 33 30q12 8 33 19q-8 14 -18.5 14t-30.5 4q-12 12 -39 37q-20 10 -53 39q-8 10 2 35q20 51 45 47q16 -12 51 -31q43 -23 92 -53q-6 14 -12 41q4 16 12 51q2 23 10 66q4 12 31 14q55 6 63 -18 q-2 -18 -4 -58q2 -47 -2 -104q8 12 27 30q18 4 51 15q20 10 62 24q12 2 29.5 -22.5t19.5 -40.5q0 -14 -4 -21q-18 -8 -54 -26q-25 -14 -59 -33q16 -16 49 -41q20 -8 42 -18.5t22 -32.5q0 -37 -33 -62q-10 -8 -21 -2q-16 8 -14 9q-4 0 -13 15t-42 26q-43 12 -51 16v-10 q-6 -27 -17 -80q8 -27 -2 -72q-27 -33 -82 -10q-10 6 -10 16q2 8 0 21q-2 0 7 16t5 33q-12 61 -12 67q-29 -8 -82 -30q-4 -2 -31 -23q-18 -14 -32 -12q-44 9 -50 68z" />
<glyph unicode="+" horiz-adv-x="548" d="M16 494q-6 55 17 63q20 -2 59 -2q61 4 135 0l-2 4v4q4 8 13 27q-8 12 -15 39q6 16 15 51q0 23 8 65q4 12 33 15q55 6 63 -19q-2 -18 -4 -57q2 -53 -4 -119q20 6 35 6q14 0 40.5 -6t39.5 -6q27 6 71 0q35 -27 12 -82q-4 -12 -16 -12q-8 2 -18 0q0 -2 -17.5 7t-31.5 5 q-18 -6 -54 -14q-18 -2 -59 0q10 -43 10 -57q-8 -27 -16 -80q6 -27 -2 -72q-29 -33 -82 -8q-10 4 -13 16q4 6 3 19q-2 0 7 16t5 33q-6 16 -12 53q-2 16 2 72q-20 -8 -23 -9q-8 4 -27 13q-12 -8 -38 -17q-16 6 -52 13q-23 0 -65 8q-13 4 -17 31z" />
<glyph unicode="," horiz-adv-x="212" d="M16 -90q12 29 31 96q-6 14 -10 41q10 10 22 33q-2 10 0 29q8 8 39 2q20 -2 58 -17q-2 -4 0 -12q2 -4 -7.5 -7t-9.5 -9q4 -8 8 -31q0 -8 -6 -25.5t-6 -27.5q4 -12 8 -29q-2 -2 -9 -4t-5 -6q4 -4 10 -15q2 -4 -7 -12t-11 -10q-2 -12 -12 -29q-6 -4 -41 2t-50 17q-8 4 -2 14 z" />
<glyph unicode="-" horiz-adv-x="589" d="M16 537q4 10 17 10q8 -2 18 0q2 2 18.5 -7.5t30.5 -4.5q18 6 56 12q16 2 50 -1t48 -3t44 7t38 7q8 -6 24 -12q12 8 41 14q16 -6 52 -14q23 0 65 -8q12 -6 14 -33q4 -55 -18 -64q-20 2 -59 4q-76 -2 -176 9q-33 -8 -101 -17q-27 6 -80 17q-27 -6 -71 2q-36 29 -11 82z" />
<glyph unicode="." horiz-adv-x="229" d="M16 47q4 27 31 48.5t53 21.5q35 0 50 -15q6 -16 21 -41.5t1 -35.5q-10 -18 -33 -48q-14 -12 -41 -2q-82 33 -82 72z" />
<glyph unicode="/" horiz-adv-x="507" d="M25 41q14 37 38 111q41 150 123 387q14 41 27 114q16 82 27 115l67 172q6 41 29 121q20 53 47 59q33 8 53 -14q14 -14 6 -47q-2 -6 -8 -22.5t-26 -59.5q-20 -35 -29 -88q-10 -72 -41 -174q-29 -84 -55 -170q-8 -53 -31 -156q-10 -18 -29 -53q-2 -25 -8 -70 q-18 -45 -53 -131q-2 -8 -33 -94q-6 -23 -27 -64q-18 -25 -59 -4q-32 15 -18 68z" />
<glyph unicode="0" horiz-adv-x="782" d="M16 684q-12 231 33 367q16 45 60 110q27 45 94 127q68 59 143 60q100 0 180 -82q109 -111 162 -312q20 -74 25.5 -148.5t11.5 -164.5q2 -20 0 -61q0 -2 -14 -109v-12q-10 -51 -58 -156q-61 -133 -122.5 -188.5t-135.5 -57.5q-137 -4 -239 148q-124 180 -140 479zM106 688 q6 -223 117 -389q88 -135 170 -139q63 -4 118.5 61.5t88.5 206.5q31 129 31 174q0 137 -9.5 183t-27.5 135q-39 156 -111 237q-66 76 -133 74q-98 -4 -174 -165t-70 -378z" />
<glyph unicode="1" horiz-adv-x="534" d="M16 51q-2 33 6.5 48.5t20.5 17.5q8 0 22.5 -4t22.5 -4q68 0 121 -9v13q2 20 4 61v8q10 35 20 105q2 4 -2 94q-2 80 11 213q14 162 16 211q-4 49 -2 147q0 14 9 45t7 47q0 10 -4 43q-4 27 -2 43q10 57 27 173q-35 4 -100 12q-23 0 -62 18q-10 12 -12 33q0 23 12 31 q29 20 109 14q2 0 157 -18q-4 -98 -18 -293q-14 -109 -31 -326q2 -98 -8 -295q-23 -152 -23 -237q-2 -100 -16 -142q25 8 35 9q23 -8 70 -19q23 4 59 -2q31 -18 12 -78q-4 -16 -14 -18q-8 4 -19 2q-2 -2 -18 8q-8 6 -16 6q-10 0 -30 -5l-28 -7q-37 6 -110 8q-8 0 -28.5 -6 t-23.5 -6q-8 6 -22 12q-12 -6 -37 -10q-14 6 -45 14q-20 2 -57 10q-11 6 -13 33z" />
<glyph unicode="2" horiz-adv-x="731" d="M16 1014q0 27 7 90q-2 4 0 12q12 70 63 139q94 125 256 127q127 2 217 -98t98 -272q4 -86 -34 -195q-14 -41 -78 -188q-20 -49 -68 -146q-31 -41 -88 -129q-18 -39 -59 -114q-27 -47 -76 -109q113 -2 338 -10q23 -2 61 -15q29 -20 21 -47q-4 -10 -27 -20 q-49 -18 -211 -14q-143 4 -391 6l70 94q166 229 317 502q63 117 101 215t30 166q-16 131 -94 213q-55 57 -129 63q-92 8 -144.5 -32t-70.5 -136q-6 -39 -12 -133q-4 -68 -35 -80q-27 -12 -43.5 20t-18.5 91z" />
<glyph unicode="3" horiz-adv-x="763" d="M16 154q-2 25 23 36q12 6 47 -10q45 -29 143 -78q2 0 11 -2q37 -14 100 -30q113 -8 185.5 58.5t72.5 180.5q0 127 -78 207q-47 47 -125 83t-125 36q-63 2 -112 0l-4 90q59 0 122 8q41 2 175 72q53 29 93 79t42 122q0 133 -45 186q-57 72 -183 74q-82 0 -168 -54l-53 -36 q-33 -20 -57 -21q-33 0 -37 19q-4 14 18.5 48.5t59.5 61.5q117 84 237 82q174 -4 267 -109q88 -96 73 -262q-12 -147 -127 -241q-55 -45 -129 -76q100 -37 162 -96q111 -106 101 -275q-6 -141 -101 -227q-104 -96 -264 -100q-117 -2 -236 77q-41 27 -55 41q-29 27 -33 56z " />
<glyph unicode="4" horiz-adv-x="894" d="M16 420q193 309 373 590l141 219q18 39 72 106l4 -2l8 -2q8 -4 70 -18q12 0 27 -8q0 -59 -11 -226q-14 -197 -30 -592q39 -2 66.5 -4t78.5 -16q33 -20 23 -49q-4 -12 -31 -21q-53 -12 -137 -10q-4 -133 -19 -209q0 -4 -4 -55q6 -6 19 -12q10 6 32 12q12 -8 39 -17 q18 -2 51 -10q10 -6 11 -41q0 -35 -13 -51q-6 -8 -22 -4q-25 6 -29 6q-59 0 -137 14q-29 -8 -82 -12l-61 19q-20 -6 -54 0q-14 10 -12 49q0 14 8 41q10 -2 25 4q2 2 16 -8q6 -4 15 -7q8 0 21 5.5t18 5.5q12 2 63 -4q2 37 6 90q0 12 2 42.5t2 47.5v29q2 18 10 65v4l-36 2 q-124 11 -523 27zM217 526q123 -12 369 -32q2 43 0 108q-6 121 12 565q-51 -80 -149 -245q-27 -55 -89 -162q-27 -33 -75 -101q-19 -47 -68 -133z" />
<glyph unicode="5" horiz-adv-x="722" d="M16 217q-16 119 13 203q16 49 47 55q16 2 24.5 -7t12.5 -44q-4 -76 10 -225q18 -63 62 -99.5t130 -38.5q96 -2 172 101q68 94 68 237q0 133 -57 234q-35 61 -103 102q-84 53 -200 51q-43 0 -179 -24l9 82q12 180 51 538q195 -8 586 -26q6 -141 4 -215q-4 -47 -9 -64 q-8 -37 -30 -45q-25 -10 -39 21q-12 25 -17 84q0 35 -4 100q-2 -14 -2 23q-61 8 -184 22q27 -2 -217 -2q-8 -137 -35 -399q207 12 350 -93q80 -59 133.5 -165.5t53.5 -204.5q0 -57 -31 -182q-25 -102 -69 -160t-115.5 -92.5t-141.5 -28.5q-121 10 -194 74q-81 67 -99 188z " />
<glyph unicode="6" horiz-adv-x="772" d="M16 725q0 164 41 315q43 164 119 258q59 72 137 86q74 14 148 -10t125 -99t61 -161q4 -45 -8 -67q-16 -29 -41 -15q-14 10 -39 74q-23 55 -33 76q-20 41 -47 65q-4 2 -12 8q-63 51 -141 45q-53 -6 -97 -69q-37 -51 -65 -164q-41 -172 -43 -346q25 45 57 76q80 80 197 82 q139 0 225 -95q100 -111 113 -303q14 -223 -82 -358q-78 -106 -217 -119q-96 -8 -174 53q-86 70 -144 224q-80 211 -80 444zM154 410l2 -11q37 -162 110 -241q61 -68 140 -58q74 10 116 60q88 102 88 250q0 33 -4 63q-29 162 -90 236q-51 66 -141 67q-66 2 -116 -40 t-81 -138q-18 -57 -24 -188z" />
<glyph unicode="7" horiz-adv-x="833" d="M16 1266q135 -2 382 3t378 5q-43 -111 -121 -334q-20 -86 -71 -258q-37 -90 -109 -272q-10 -27 -53 -174q-33 -109 -66 -166q-18 -33 -33.5 -41.5t-31.5 -3.5q-18 4 -25 16q-10 18 2 59q10 27 29 80q0 4 2 13q16 31 47 96q20 72 60 211q25 78 114 329q74 205 103 334 q-37 4 -111 8q-20 0 -60 -8t-61 -8q-47 0 -136 6t-132 6q2 -82 2 -98q0 -20 -12 -55q-33 -33 -54 -15q-29 27 -34 111q-7 56 -9 156z" />
<glyph unicode="8" horiz-adv-x="708" d="M16 369q-8 170 54 258q27 37 120 104q-150 80 -159 287q-6 143 47 217q12 18 41 39l45 35q70 57 131 55q74 -2 143.5 -56.5t103 -130t25.5 -118.5q-8 -37 -8 -39q0 -12 7 -34.5t5 -35.5q-6 -20 -16 -59q0 -2 -4 -10q-8 -23 -57 -76q-29 -31 -60 -53q123 -63 180 -191 q27 -63 33 -121q-4 -27 -2 -84q10 -57 6 -75l-18 -68q-2 -6 -4 -14q-12 -31 -66 -93q-106 -121 -215 -124q-117 -4 -209 88q-113 115 -123 299zM106 371q0 -82 48 -158q74 -119 194 -129q57 -6 111 33q35 25 63 88q16 37 37 106q8 66 -12 133q-16 61 -35 99q-27 51 -80 87 t-106 36q-76 -2 -133 -64q-87 -88 -87 -231zM121 1022q2 -66 33 -113q57 -94 157 -106q51 0 86 22q23 16 47 62q27 53 31 80q8 47 -4 106q-6 37 -29 84q-49 94 -145 92q-57 -2 -104 -49q-72 -69 -72 -178z" />
<glyph unicode="9" horiz-adv-x="751" d="M16 889q4 223 111 350q86 100 225 100q96 2 170 -65q80 -76 126 -238t46 -340q0 -219 -69 -417q-57 -160 -142 -246q-63 -68 -141 -76t-145 20q-76 33 -120 111t-46 164q-2 47 12 67q18 29 41 11q16 -10 35 -76q16 -57 24 -78q18 -43 43 -70q4 -2 11 -8q61 -57 137 -55 q53 0 102 59q41 47 80 160q55 166 70 340q-29 -41 -64 -72q-86 -72 -203 -63q-137 10 -215 111q-92 118 -88 311zM123 889q16 -164 70 -242q47 -70 135 -80q68 -6 116 29q57 41 95 135q23 55 41 184l-2 11q-23 164 -91 250q-55 74 -133 69q-76 -4 -123 -51 q-124 -123 -108 -305z" />
<glyph unicode=":" horiz-adv-x="245" d="M25 47q4 27 30.5 48.5t53.5 21.5q35 0 49 -15q6 -16 21.5 -41.5t0.5 -35.5q-10 -18 -33 -48q-14 -12 -41 -2q-81 33 -81 72zM25 477q4 27 30.5 48.5t53.5 21.5q35 0 49 -15q6 -16 21.5 -41.5t0.5 -35.5q-10 -18 -33 -47q-14 -12 -41 -2q-81 32 -81 71z" />
<glyph unicode=";" horiz-adv-x="229" d="M25 -90q12 29 30 96q-6 14 -10 41q10 10 23 33q-2 10 0 29q8 8 38 2q20 -2 58 -17q-2 -4 0 -12q2 -4 -7.5 -7t-9.5 -9q4 -8 9 -31q0 -8 -6.5 -25.5t-6.5 -27.5q4 -12 9 -29q-2 -2 -9.5 -4t-5.5 -6q4 -4 10 -15q2 -4 -7 -12t-11 -10q-2 -12 -12 -29q-6 -4 -41 2t-49 17 q-8 4 -2 14zM25 477q4 27 30.5 48.5t53.5 21.5q35 0 49 -15q6 -16 21.5 -41.5t0.5 -35.5q-10 -18 -33 -47q-14 -12 -41 -2q-81 32 -81 71z" />
<glyph unicode="&#x3c;" horiz-adv-x="868" d="M16 508q80 43 244 117q115 37 340 125q63 29 105 41q59 18 81 4q29 -16 25 -50q-4 -18 -23.5 -26t-52.5 -23q-4 -2 -16 -5t-33 -5q-45 -10 -117 -51q-57 -33 -155 -70q-133 -47 -162 -59q57 -16 168 -57q12 -12 41 -29q25 -6 76 -19q8 -2 90 -51q14 -8 108 -53 q25 -8 66 -39q8 -12 6 -33q-4 -20 -17.5 -28.5t-31.5 -8.5q-25 0 -86 27z" />
<glyph unicode="=" horiz-adv-x="589" d="M16 455q4 10 17 10q8 -2 18 0q2 2 18.5 -7t30.5 -5q18 6 56 12q16 2 50 -1t48 -3t44 7t38 7q8 -6 24 -12q12 8 41 14q16 -6 52 -14q23 0 65 -8q12 -6 14 -33q4 -55 -18 -64q-20 2 -59 4q-76 -2 -176 9q-33 -8 -101 -17q-27 6 -80 17q-27 -6 -71 2q-36 29 -11 82zM16 680 q4 10 17 10q8 -2 18 0q2 2 18.5 -7t30.5 -5q18 6 56 12q16 2 50 -1t48 -3t44 7t38 7q8 -6 24 -12q12 8 41 14q16 -6 52 -14q23 0 65 -8q12 -6 14 -33q4 -55 -18 -63q-20 2 -59 4q-76 -2 -176 8q-33 -8 -101 -16q-27 6 -80 16q-27 -6 -71 2q-36 29 -11 82z" />
<glyph unicode="&#x3e;" horiz-adv-x="868" d="M16 745q-6 33 25 50q23 14 82 -4q41 -12 103.5 -41t168.5 -66q127 -41 170 -59q80 -41 246 -117q-213 -96 -655 -293q-61 -27 -88 -27q-18 0 -31.5 8.5t-16.5 28.5q-4 20 5.5 32.5t66.5 39.5q37 18 109 53q29 20 90 51q25 4 76 19q12 10 41 29q55 18 165 57 q-109 35 -315 129q-74 41 -117 51q-12 0 -32 4l-19 6q-16 6 -49 21q-23 10 -25 28z" />
<glyph unicode="?" horiz-adv-x="618" d="M25 31q4 29 30.5 50t53.5 21q35 0 49 -14q6 -16 21.5 -42t0.5 -38q-10 -16 -33 -45q-12 -12 -41 -2q-81 37 -81 70zM33 283q0 119 80 188q37 33 127 70t127 63q100 80 94 225q-2 53 -33 121q-41 94 -88 123q-55 33 -137 6q-86 -29 -94 -28q-18 0 -31 8q-20 14 -19 33 q4 25 43 47q14 8 48 24q8 2 22 8q6 2 55 3q98 0 166 -27t111 -100q51 -88 49 -220q-2 -100 -35 -184q-12 -33 -49 -90l-86 -55q-29 -25 -92 -62q-39 -8 -111 -37q-41 -31 -45 -108q2 -27 -4 -76q-4 -10 -27 -22q-14 -8 -26 -9q-12 2 -28.5 27t-16.5 72z" />
<glyph unicode="@" horiz-adv-x="1212" d="M0 596q0 276 158 463q72 82 176 134t209 52h4q207 2 373 -155q117 -109 184 -272t67 -326q0 -133 -47 -244q-29 -72 -95 -114t-148 -42h-7q-100 2 -163 68q-33 37 -45 88q-57 -57 -146 -55h-2q-88 0 -145 57q-49 53 -49 137q0 86 43 127q23 12 67 39q20 20 66 49l94 29 q59 18 86 45q-4 117 -41 164q-27 33 -82 30h-8q-53 0 -78 -61q-6 -23 -25 -66q-14 -18 -30 -18q-14 0 -22.5 24.5t-8.5 51.5q0 80 53 129q47 41 123 41q39 0 72 -10l-8 4l6 -2q82 -20 112 -109q18 -53 21 -137q4 -37 4 -64q0 -29 -6 -35q-2 -150 -2 -188v-2q2 -4 2 -22 q0 -20 -3 -59.5t-3 -57.5q0 -33 26 -58q35 -33 90 -32h2q45 0 89.5 25.5t60.5 64.5q43 109 43 235q0 139 -54.5 274.5t-154.5 225.5q-131 121 -295 121q-100 0 -200.5 -53.5t-157.5 -137.5q-31 -45 -55 -133q-35 -121 -35 -241q0 -293 151 -461q135 -145 355 -148l4 -2 q14 0 44.5 3t45.5 3q37 0 59 -12q12 -6 12 -20q0 -18 -57 -43q-63 -27 -133 -27q-225 0 -381 158q-102 102 -160 260q-55 151 -55 305zM416 369q-2 -35 23.5 -51.5t109.5 -16.5q59 0 80 27q12 31 43 90q4 76 6 139l-4 -2q-55 -25 -166 -76q-90 -45 -92 -104v-6z" />
<glyph unicode="A" horiz-adv-x="962" d="M-127 39q0 35 12 51q6 8 23 4q25 -6 29 -6h18q38 0 84 -6q2 14 18 78q14 35 39 106q41 145 123 377q14 39 27.5 115t23.5 110q25 55 68 166q2 6 18 80q12 51 31 76q-4 4 -8 6q-8 -8 -29 -14q-12 6 -39 14q-16 0 -49 8q-8 6 -10 41q0 35 10 51q6 8 23 4q23 -4 26 -4 q9 0 19 1q49 0 110 -9q27 8 76 15q20 -6 59 -15q18 4 50 0q14 -10 14 -49q0 -41 -9 -42t-22 -5q0 -2 -14 8q-6 6 -14 6t-20.5 -5t-16.5 -7q-14 -2 -37 0q2 -6 6 -20.5t12 -47.5q-2 -6 -2 -20q4 -45 25 -90q31 -68 61 -174l49 -176q23 -49 60 -152l6 -61q12 -23 33 -66 q8 -47 28 -141l25 -99q12 -51 14 -100q16 6 51 12q12 0 33 -6t31 -6q18 6 53 2q14 -8 17 -47q1 -9 0 -16q0 -18 -3 -25q-5 -10 -16 -8h-22q-2 6 -21 12q-8 0 -21.5 -6t-17.5 -6q-14 -4 -38 -4q-12 0 -26.5 1t-26.5 1q-25 0 -40 -4q-29 -10 -24 -10q-6 4 -21 10 q-10 -6 -31 -15q-14 6 -41 13q-18 0 -53 8q-10 4 -12 39t8 53q6 8 23 4q27 -4 28 -4q19 1 41.5 1t46.5 -1q-18 31 -30 80q-16 72 -19 80q-29 86 -57 192q-53 6 -35 9q-11 0 -22 -1q-56 0 -125 9q-29 -6 -84 -15q-23 8 -66 17q-18 -4 -53 -2q0 -12 -2 -39q-18 -41 -53 -127 q-12 -35 -37 -107q-6 -18 -27 -51l-4 -4q18 6 31 6q20 -8 61 -16q20 4 53 0q14 -10 15 -49q0 -39 -9.5 -41t-23.5 -6q-2 -2 -12.5 6t-18.5 8t-21.5 -5t-17.5 -7q-6 0 -69 4q-41 -6 -86 -13q-6 6 -21 13q-10 -6 -33 -13q-12 6 -38 15q-18 2 -54 10q-10 6 -10 41zM285 502 q8 -4 14 -4q8 0 21.5 5t19.5 7q6 0 72 -4q41 6 90 12q6 -4 20 -12q10 6 35 12q14 -6 49 -14q-12 47 -26 102q-10 43 -42 118t-42 110q-12 78 -56 237q-4 -6 -12 -22q-10 -25 -16 -66q-10 -70 -43 -168l-54 -168q-7 -49 -30 -145z" />
<glyph unicode="B" horiz-adv-x="966" d="M-87 -2q0 18 24 24q21 6 55 5h20q37 -2 88 -9q-10 18 -10 41q6 39 14 117q6 152 33 399q2 20 2 49.5t-2 67.5q-3 53 -3 87q0 17 1 28q10 61 27 180q0 41 2 123q6 47 24 84l-30 4q-39 4 -117 14q-55 12 -66 50q-4 20 38 28t77 10q47 0 184 -12q125 -12 220 -22 q209 -23 301 -129q80 -98 79 -240q0 -113 -55 -192.5t-160 -118.5q152 -61 213 -183q37 -73 38 -153q0 -8 -1 -17q-8 -168 -139 -264q-119 -86 -311 -86q-156 0 -385 39q-72 12 -109 27q-52 18 -52 49zM176 8q29 -2 86 -10q16 -2 105 -21q61 -12 102 -12q145 0 242 80 q88 76 88 197q0 68 -30 123q-32 57 -97 100q-84 57 -201 84q-32 -2 -70 -2q-75 0 -172 8q5 -68 5 -96q0 -9 -1 -15q-6 -18 -16 -57q-2 -12 3 -35.5t7 -34.5q0 -27 -10 -69q-12 -57 -13 -65.5t-11 -98.5q-1 -31 -17 -76zM233 664q90 -4 173 -15q68 4 124 17q78 16 82 18 q45 10 74 31q66 41 74 149q1 17 1 33q0 110 -61 178q-70 78 -215 92q-72 6 -215 21q0 4 -2 -55q-2 -6 -4 -25q2 -6 -12 -64q-8 -31 -8 -67q0 -2 2 -23q2 -17 1 -44q0 -80 -14 -246z" />
<glyph unicode="C" horiz-adv-x="847" d="M-25 659q0 121 17 265q25 215 114 331.5t209 126.5q19 2 39 2q99 0 187 -54q104 -65 166 -197q31 -68 41 -134q3 -18 2 -33q0 -30 -11 -45q-16 -24 -39 -14q-16 6 -26 29q-16 55 -60 158q-2 4 -6 10q-20 43 -63 113q-39 49 -92 67q-30 10 -66 10q-28 0 -59 -6 q-66 -12 -121 -80q-61 -78 -98 -211q-43 -145 -43 -303q0 -98 18 -194q8 -51 49 -183q14 -51 53 -147q12 -18 54 -53q96 -84 188 -84q78 0 138.5 36.5t95.5 114.5q23 51 34 129q6 39 11 54q10 31 27.5 41t29.5 2q14 -10 27 -66q3 -17 3 -37q0 -52 -24 -119 q-35 -104 -106 -168q-94 -82 -228 -94q-17 -2 -33 -1q-89 0 -163 46q-100 61 -166 195q-99 200 -99 493z" />
<glyph unicode="D" horiz-adv-x="958" d="M-86 -31q10 16 47 21h53q27 -4 82 -8q-10 18 -10 38q6 39 10 115q2 154 23 402q2 16 1 38q0 33 -3 80q-5 58 -5 93q0 11 1 20q8 61 22 182q-1 20 -1 50.5t1 70.5q6 61 19 86l-35 2q-35 2 -107 10q-59 8 -67 43q-4 23 12 33q31 16 80 17h16q55 0 174 -11q68 -2 201 -10 q98 -10 188.5 -64.5t141.5 -134.5q78 -121 98 -258q10 -68 10 -143q0 -58 -6 -121q-31 -340 -164 -487q-78 -84 -186 -125q-91 -35 -213 -35h-27q-78 2 -233 14q-51 6 -83 17.5t-40 27.5q-5 11 -5 20.5t5 16.5zM176 -25q33 -8 100 -18q17 -2 35 -2q158 0 289 136 q145 151 172 437q2 30 2 63q0 54 -6 114q-4 31 -39 141q-10 47 -49 131q-18 27 -82 76q-96 74 -174 84q-53 6 -193 14q6 -23 5 -55q0 -6 -3 -25q2 -4 -10 -61q-6 -20 -6 -45q-2 -16 2 -47q5 -40 5 -92q0 -39 -3 -85q-4 -88 -10 -176q6 -53 8 -157q-6 -18 -14 -58 q-2 -12 4 -35.5t6 -33.5v-12q0 -24 -6 -56q-10 -59 -11 -67.5t-10 -98.5q0 -27 -12 -72z" />
<glyph unicode="E" horiz-adv-x="903" d="M-86 1198q-11 19 -11 34q0 20 19 32q12 8 35 8h39q-2 2 8 2q27 -6 82 -12q61 8 184 20q21 -1 48 0q79 0 204 4q47 8 142 17q10 0 26.5 -5.5t24.5 -5.5q-2 0 -2 1q0 2 73 14q3 -20 3.5 -46t-3.5 -57q-8 -90 -8 -104q-2 -37 -4 -109q2 -23 -14 -55q-31 -23 -60 -4 q-25 14 -24 57q0 4 4 70q0 25 -2 65q-4 49 -4 66q-59 3 -159 3q-50 0 -109 -1q-53 -10 -160 -23q-23 0 -56 5q6 -12 7 -27v-25q4 -6 0 -45q-4 -6 -9 -18q-4 -20 -4 -45q0 -16 4 -47q10 -55 11 -312q6 -4 12 -4q8 4 27 15q8 -1 17 -1q29 0 75 9q20 10 16 10q4 0 9 -6t10 -4 q4 6 14 14q6 2 18.5 -5t17.5 -7t21 -2q-6 14 -6 22q0 12 7 30.5t7 29.5q-6 16 -4 49q10 12 49 14q43 2 43 -8t5 -18q4 -2 -7 -17q-6 -6 -6 -14q0 -6 6 -19l9 -16q-1 -12 -2 -26q0 -37 8 -93q10 -29 10 -22l-12 -19q8 -10 14 -30l-12 -37q0 -16 -6 -49q-4 -8 -39 -11 q-35 -2 -54 9q-8 4 -4 20q4 23 4 27q-3 23 -2 50v27q-29 2 -24 5q-20 -3 -45 -3.5t-53 3.5q-12 0 -31 -9.5t-27 -11.5q-8 0 -23.5 6t-23.5 6q-4 2 -12 -2q12 -90 12 -110q-6 -18 -12 -58q0 -12 7 -35.5t7 -31.5q1 -10 1 -21q0 -22 -3 -51q-8 -57 -9 -66.5t-3 -99.5 q0 -20 -2 -44.5t-15 -35.5q37 4 60 4q20 0 112 -4q68 -2 111 -2q16 2 50 8.5t52 4.5q10 0 34 -7.5t38 -5.5q12 6 39 13q0 27 8 69q8 51 10 70v49q0 31 11.5 44t34.5 17q23 2 34 -10q23 -16 23 -61q0 -29 -4 -88q-2 -70 -4 -207q-45 0 -160 8q-104 6 -162 6q-43 -6 -131 -14 h-9q-37 0 -147 12q-7 1 -44.5 1t-104.5 -1h-12q-62 0 -82 21q-10 10 -11 32q0 41 25 47q18 -2 53 0q-4 0 6 0q25 -6 76 -14q16 0 37 2q-25 14 -27 55q2 39 5 115q-3 66 -3 150q0 111 5 254q0 41 -10.5 117.5t-10.5 113.5q0 33 6 93.5t6 88.5q-4 39 -6 121q2 47 19 64 q-37 -5 -98 -6q-30 0 -66 2q-27 6 -37 22z" />
<glyph unicode="F" horiz-adv-x="911" d="M16 -37q4 14 15 17q8 -4 20 -3q2 2 19 -8q6 -6 16 -6t29.5 5t29.5 5q16 2 58 -4q-12 20 -13 43q0 20 5.5 58.5t5.5 58.5q2 152 20 401q2 16 2 38q0 32 -4 77q-5 61 -4 97v20q8 61 21 180q-1 20 -1.5 51t1.5 72q4 47 22 63h-2q-24 -3 -57 -2q-45 0 -107 4q-27 8 -35 25 q-9 19 -9 33q0 22 22 33q12 8 34 8l39 -2h9q27 -8 81 -17q61 6 183 11q25 0 127 -4q78 -4 127 -5q20 0 71 7q34 5 56 4h14q16 -6 49 -13q-1 0 -1 1q0 2 75 10q2 -15 2 -34q0 -30 -6 -69q-14 -90 -15 -102q-2 -37 -8 -111q0 -20 -18 -53q-31 -20 -60 -2q-21 14 -21 48 q0 6 1 11q0 4 6 70q0 43 2 131q-35 0 -135 8q-67 7 -112 7q-11 0 -21 -1q-27 0 -80 -7q-41 -6 -68 -5h-14q-23 0 -53 4q4 -10 4 -26q0 -6 -2 -25q2 -4 -10 -61q-6 -20 -9 -46q0 -16 5 -47q2 -19 2 -60q0 -82 -9 -251q6 -6 11 -6q14 8 77 12q29 -2 46.5 6.5t15.5 8.5 q2 0 7 -6.5t9 -6.5q4 6 15 15q6 2 18 -5.5t17.5 -8.5t21.5 -3q-4 14 -4 25q6 18 16 57q-6 16 -2 47q10 14 49 15q41 0 45 -11q-2 -8 2 -20q4 -2 -4 -12.5t-10 -16.5q0 -8 6 -19.5t6 -17.5q2 -4 -2 -63q6 -37 13 -78q-6 -6 -13 -18q6 -10 13 -31q-6 -10 -15 -37 q0 -16 -10 -47q-4 -10 -39 -10t-53 12q-6 4 -2 20q4 23 4 25q0 37 4 80q-29 4 -25 4q-12 -1 -25 -1q-34 0 -75 7q-18 -8 -57 -16q-8 0 -25.5 8t-34.5 4q7 -72 7 -100v-11q-4 -18 -13 -57q-2 -14 3 -36.5t7 -33.5q0 -27 -6 -69q-12 -57 -13 -66.5t-7 -99.5q-2 -27 -10 -70 q29 8 26 8q6 -6 23 -12q12 6 37 10q14 -6 45 -14q20 -2 59 -12q12 -5 13 -41q0 -48 -19 -53q-5 -2 -11.5 -2t-15.5 2q-20 6 -26 6q-86 0 -148 12q-33 6 -51 2q-6 0 -25.5 -6t-29.5 -6q-23 8 -72 18q-20 -4 -59 2q-19 12 -20 40q0 17 7 40z" />
<glyph unicode="G" horiz-adv-x="985" d="M16 649q0 150 25 303q31 197 149 308q76 70 166 79q19 2 39 2q101 0 189 -55q78 -49 133 -141t69 -189q3 -20 3 -35q0 -30 -10 -45q-15 -24 -40 -14q-12 6 -24 31q-18 55 -64 162q-2 2 -6 10q-41 84 -59 109q-45 53 -101 68q-31 9 -63 9q-26 0 -53 -6q-61 -12 -111 -67 q-66 -76 -106 -209q-45 -156 -46 -324q0 -207 70 -381q14 -45 31 -88q18 -53 43 -84q78 -100 212 -100h5q84 2 141 45q63 51 94 151q18 66 25 144q2 29 16 84q-39 4 -59 4q-8 0 -28.5 -5t-22.5 -5q-8 6 -23 12q-12 -6 -39 -10q-14 6 -45 16q-20 2 -59 12q-10 6 -12 33 q0 55 22 64q8 2 27.5 -3.5t25.5 -5.5q84 -2 146 -14q35 -8 53 -4q6 0 25.5 6t29.5 4q23 -8 72 -18q20 4 59 -2q19 -13 20 -41q0 -17 -7 -39q-6 -16 -17 -19q-8 4 -20 2q0 -2 -17 11q-8 4 -18 6q-2 0 -41 -8q4 -14 8 -47q2 -18 3 -38q0 -50 -15 -116q-33 -158 -137 -250 q-80 -70 -197 -80q-15 -1 -30 -1q-75 0 -144 34q-82 41 -145 135q-98 139 -127 381q-15 106 -15 219z" />
<glyph unicode="H" horiz-adv-x="993" d="M16 1155v13q0 25 7 40q6 8 20 4q25 -4 27 -4q28 3 59.5 3t67.5 -3q14 0 37.5 10.5t35.5 10.5q10 0 29.5 -6t28.5 -6q18 6 49 4q12 -8 16 -47q2 -31 -4 -44q-10 0 -22 -6q-4 -6 -11 0q-16 12 -20 13q-10 -6 -35 -15q-6 -2 -61 -2q6 -23 8 -55v-25q4 -4 0 -45l-6 -18 q-4 -20 -4 -45q0 -14 6 -45q12 -70 16 -285q6 4 37 -6q14 -8 31 -4q16 6 53 14q33 -2 100 -2q14 0 45 8.5t37 8.5q8 -4 27 -11q12 6 41 15q16 -6 51 -13q18 0 53 -4q-10 63 -22 189q4 61 8 180q0 18 -5 59t-5 62q2 43 8 71q-4 4 -12 9q-8 -8 -29 -15l-37 13q-16 0 -49 6 q-8 4 -12 39q-2 35 8 51q4 8 20 6q23 -4 25 -4q28 3 60 3t69 -3q12 0 35.5 10t36.5 10q10 0 29.5 -6t27.5 -6q18 6 49 4q14 -10 16 -49q2 -29 -4 -41q-10 0 -22 -6q-2 -6 -8 -2q-16 12 -21 12q-12 -4 -35 -14q-8 -2 -63 0q6 -25 8 -56v-24q6 -6 0 -45l-6 -19q-4 -20 -4 -45 q0 -16 6 -45q14 -70 16 -174q2 -86 2 -174q10 -51 21 -153q0 -12 -4 -31t-6 -29q0 -12 7 -34.5t9 -32.5q2 -11 2 -24q0 -19 -4 -44q-6 -57 -6 -70v-96q0 -23 -6 -65q4 2 8 2q6 -4 16 -11q8 6 27 13q12 -6 35 -15q14 0 43 -8q8 -6 10 -39q0 -37 -10 -53q-4 -8 -19 -4 q-20 6 -24 6q-12 -1 -26 -1q-40 0 -91 9q-23 -8 -68 -16q-16 6 -53 16q-16 -6 -43 -2q-12 10 -12 49q0 43 8 43t18 4q2 2 15 -8q4 -6 12 -6q6 0 17.5 6t15.5 6q12 4 41 0q-12 18 -15 41q2 37 2 115q-8 131 -8 340h-49q-31 -2 -66 -2q-52 0 -112 4q-18 2 -52 -8t-50 -10 q-14 0 -41 6t-41 8q-20 -4 -60 -6q8 -39 17 -119q0 -10 -5.5 -29.5t-5.5 -29.5q0 -12 7.5 -35t9.5 -31q1 -9 0 -19q0 -21 -2 -51q-6 -57 -6 -69q0 -37 -2 -113q2 -16 -5 -49l5 2q2 2 4 2q4 -6 16 -12q8 6 27 12q10 -6 34 -14q14 0 43 -8q8 -4 9 -39q2 -37 -9 -54 q-4 -6 -20 -4q-20 6 -23 6q-13 -1 -26 -1q-41 0 -90 10q-23 -8 -68 -17q-18 8 -53 17q-16 -6 -43 -2q-12 10 -12 49q0 43 8 43t18 4q2 2 10.5 -5t16.5 -9q6 0 17.5 6t15.5 6q12 4 39 0q-12 18 -13 41q1 19 1 48t-1 66q-7 121 -6 303v95q0 41 -12 116.5t-12 112.5q4 59 8 178 q0 18 -5.5 59.5t-5.5 61.5q0 43 9 74l-13 6q-10 -6 -28 -14q-12 6 -37 12q-18 0 -49 6q-11 4 -13 39z" />
<glyph unicode="I" horiz-adv-x="452" d="M-4 25q0 14 8 41q10 0 25 6q0 2 14 -11q6 -4 14 -6q8 0 20.5 5.5t18.5 7.5q12 2 56 -5q-12 18 -15 43q4 39 8 115v40q0 143 13 357v18q0 39 -6 100q-8 77 -9 112q8 59 19 180q-4 39 -4 121q4 39 16 68h-4q-6 4 -20 12q-10 -8 -33 -15q-14 6 -43 13q-18 0 -56 8 q-10 4 -12 31q-4 43 10 61q6 8 25 4q25 -4 29 -4q18 1 37 1q48 0 108 -7q29 10 84 18q23 -6 66 -14q20 6 55 2q16 -10 16 -49q1 -8 1 -14q0 -19 -5 -26q-6 -9 -16 -9q-8 0 -21 2q-4 6 -24 12q-8 0 -21.5 -6t-17.5 -6q-3 -1 -21.5 -1t-52.5 1h-4q4 -14 6 -55q0 -6 -2 -25 q2 -4 -8 -61q-6 -23 -6 -46q0 -16 2 -45q9 -58 8 -141v-35q-6 -186 -6 -174q0 -25 7 -76q6 -40 6 -66q0 -7 -1 -13q-4 -18 -12 -58q-2 -12 4 -33q8 -27 8 -34q1 -7 1 -15q0 -23 -5 -55q-10 -57 -11 -65.5t-5 -98.5q0 -23 -9 -65q10 4 13 4q6 -6 18 -15q10 8 31 13 q12 -6 39 -15q16 -2 49 -10q10 -6 10 -41q-2 -35 -12 -51q-4 -5 -13 -6q-4 0 -10 2q-25 6 -26 6q-57 0 -133 12q-27 -6 -78 -12q-20 8 -60 18q-18 -6 -51 0q-12 11 -12 50z" />
<glyph unicode="J" horiz-adv-x="827" d="M16 307q2 55 24.5 77t45.5 5q23 -14 27 -65q0 -29 6 -86q0 4 2 -15q0 -49 16 -141q41 -102 119 -150q48 -31 113 -30h8q76 2 127 57q70 74 94 225q4 59 10 181q0 16 8 61q6 37 5 61q-6 33 -17 99q-2 57 -8 168.5t-37 259.5q-20 100 -18 116h-2q-31 -16 -99 -36 q-10 1 -22 0q-25 0 -62 -2q-8 0 -28.5 -7.5t-30.5 -7.5q-25 0 -36 28t-5 52q4 14 18 17l29 4q2 -2 8 -7q18 -4 43 7l41 20q51 4 150 31q12 6 30 14q8 -2 29 -6q10 10 37 23q18 -2 55 -5q72 4 68 7q14 -2 20 -29q7 -23 8 -39q0 -6 -1 -10q-4 -14 -28 -18.5t-44 -6.5 q-43 -10 -96 -18q20 -37 39 -123q61 -311 61 -543q0 -221 -57 -397q-47 -154 -134 -225q-66 -57 -151 -62h-12q-115 0 -195 76q-98 92 -145 295q-13 57 -13 125v20z" />
<glyph unicode="K" horiz-adv-x="1005" d="M16 1141q0 35 62 41q29 0 84 2h4q12 2 27 0q23 -4 67 -10q0 -12 14 -142q10 -92 13.5 -272t11.5 -268q72 96 217 284q20 29 52 86.5t50 81.5q35 39 103 115l33 55q-6 2 -13 2q-14 -6 -39 -2q-12 8 -12 47q-2 31 4 41q6 2 19 8q2 4 12 -8q4 -6 12 -6q6 0 15.5 6t13.5 8h51 q23 -2 45.5 6.5t20.5 8.5q2 0 8 -6.5t8 -4.5q6 4 16 13q2 1 4 0q6 0 16 -4q13 -6 17 -9q12 0 39 -6q8 -6 10 -41q0 -35 -8 -51q-4 -8 -16 -4q-18 4 -23 4q-16 -2 -35 -2t-40 2q-4 -8 -19 -26q-4 -6 -39 -37q-27 -20 -45 -62q-27 -55 -82 -127l-90 -119q-18 -41 -65 -114 l-37 -31q8 -6 16 -19.5t18.5 -41t41.5 -56.5q45 -43 47 -47q43 -66 143 -188q14 -10 37 -35q4 -12 14 -39q14 -8 39 -31q6 -4 39 -69q6 -12 45 -72q10 -14 23 -43v-4q10 6 12 6q6 -4 18 -10q8 8 27 14q10 -4 35 -10q14 0 45 -6q8 -6 10 -39q1 -11 1 -20q0 -22 -7 -33 q-4 -8 -19 -7q-23 4 -24 5q-26 -3 -55.5 -3t-63.5 3q-12 2 -34.5 -8.5t-32.5 -10.5t-28 6t-26 6q-16 -6 -45 -4q-12 10 -16 50q0 29 4 40q8 0 22 7q2 6 7 0q16 -10 20 -11q12 6 43 15l-24 43q-33 41 -97 127q-29 49 -94 141q-31 27 -84 84q-16 33 -51 94q-20 23 -62 72 q-16 -16 -49 -51q-25 -35 -80 -97q0 -20 2 -34q-6 -33 -8 -101q8 -43 19 -129q-4 -68 -6 -207q-55 2 -166 4q-45 2 -54 5q-29 4 -36 22q-14 31 0 49q20 25 75 25q25 -2 78 -4q0 47 -4 127q-8 100 -8 129q0 117 -6 352q-8 55 -23 168q-3 27 -3 67t3 95q2 43 2 77q0 52 -4 84 q-42 -5 -72 -4q-45 0 -65 11q-25 12 -25 47z" />
<glyph unicode="L" horiz-adv-x="782" d="M-127 43q0 43 27 47q18 0 51 -2q6 2 20 0q12 -6 41 -14q9 -1 23 -2q27 0 71 6q-16 18 -16 49q0 18 4 57t4 58q0 160 17 401v20q0 38 -5.5 98.5t-5.5 96.5v19q8 59 19 180q-2 41 -2 123q0 25 10 71h-2q-4 -2 -6 -2q-8 6 -25 13q-12 -6 -39 -13q-16 4 -49 15q-23 0 -65 8 q-10 4 -13 31q-1 12 -1 21q0 36 18 42q20 -2 57 -4q26 1 51 1q60 0 107 -7q37 -4 55 0q6 0 26.5 7t30.5 7q27 -8 78 -16q11 3 26 2q19 0 44 -4q19 -17 19 -43q0 -18 -9 -39q-6 -10 -16 -13q-27 0 -35 7.5t-23 9.5q-10 0 -30.5 -7t-30.5 -7h3q0 1 -93 4q12 -25 12 -58v-24 q2 -6 -10 -64q-6 -20 -6 -45q0 -16 2 -45q7 -51 7 -119q0 -27 -1 -57q-4 -90 -6 -178q6 -51 10 -158q-6 -18 -14 -57q0 -12 6 -36t6 -32v-12q0 -25 -6 -57q-10 -59 -10 -67.5t-6 -100.5q0 -29 -15 -74q27 -2 109 -8q70 -6 110 -6q14 0 47 4t52 4q10 -2 32.5 -9.5t34.5 -7.5 q12 6 33 13q-2 27 8 69q12 59 14 72q2 25 3.5 50.5t13.5 39.5t39 14q25 -2 35 -16q16 -23 16 -59l-10 -93q-4 -66 -10 -198q-102 12 -308 24q-23 0 -61 -4q-47 -4 -64 -6q-31 0 -151 19q-14 2 -148 6q-100 2 -100 55z" />
<glyph unicode="M" horiz-adv-x="1277" d="M-25 1178q0 33 62 41l86 6h4q12 2 27 2q12 0 34.5 -3t32.5 -5q-2 -16 12 -148q8 -76 11 -145q31 96 80 147q60 64 138 64h5q51 -2 96 -37q55 -43 94 -139q16 -45 33 -107l10 31q43 127 93 176q62 60 138 60q9 0 19 -1q59 -4 107.5 -47t77.5 -131q20 -68 41 -209 q14 -106 14 -112q-6 -37 -12 -109q6 -45 8 -135q-12 -90 -37 -273q-8 -59 -31 -167q10 -10 12 -11q4 6 17 13q6 2 17.5 -6.5t15.5 -8.5q12 -2 34 -10q7 -5 7 -27v-12q0 -37 -11 -53q-2 -4 -7 -4q-4 0 -9 2q-16 4 -18 4q-43 0 -99 12q-18 -6 -57 -12q-14 6 -45 16 q-12 -4 -33 -2q-12 8 -12 37t12 59q6 -2 14 3q2 4 8.5 -5.5t12.5 -9.5t15 5t14 5q10 2 26 0q-3 11 -3 28.5t3 41.5q2 27 19.5 133.5t25.5 378.5q2 63 2 115q0 141 -12 212q-16 97 -55 140q-27 29 -72 31h-5l-77 -31q-59 -49 -84 -139q-4 -12 -26 -152q-4 -33 -23 -90 q-4 -29 -4 -47q6 -45 12 -133q-8 -90 -20 -273l-6 -116q0 -27 -15 -74q-6 -10 -26 -16q-16 -4 -29 0q-29 14 -29 94q0 43 6 143q0 125 4 377q0 24 1 47q0 170 -27 272q-23 78 -56 117q-32 37 -67 37h-4q-41 -2 -84 -47q-59 -61 -78 -152q-2 -6 -18 -153q-4 -27 -9.5 -57.5 t-21.5 -45.5l2 -26q10 -66 20 -199q-6 -33 -8 -100q10 -45 19 -131q-4 -72 -6 -215l-142 -2q-84 0 -102 10q-27 14 -21 49q4 27 35 37q12 4 56 4q29 0 71 -2q0 51 -4 133q-6 102 -8 131q1 30 0 68q0 113 -4 293q-10 70 -25 208q3 50 3 124.5t-3 172.5q-51 -8 -85 -8t-50 8 q-27 13 -27 50z" />
<glyph unicode="N" horiz-adv-x="1007" d="M-25 1229q10 20 48 24q33 -2 96 -4h12q35 -6 105 -16q45 -80 133 -240q53 -113 163 -334q33 -49 93 -155q10 -35 39 -103q23 -29 61 -92q8 -16 18 -41q-2 67 -2 150t2 182q0 41 -11 120t-11 116q-1 8 -1 17q0 29 5 76q6 62 6 89q0 20 -5 61t-5 64q2 47 12 71q-6 4 -14 11 q-10 -8 -29 -15l-39 13q-16 0 -47 6q-10 4 -12 39t8 53q4 8 21 4q23 -4 24 -4q28 3 60 3t69 -3q12 -2 37 8t35 10t29.5 -6t27.5 -6q18 6 49 4q14 -10 17 -49q2 -45 -19 -45q-4 0 -10 -4q-4 -2 -8 0q-16 12 -21 12q-6 0 -18 -6l-16 -8h-62h-4q8 -20 10 -57v-25q6 -4 2 -45 q-4 -6 -8 -19q-4 -23 -4 -47q0 -16 6 -45q12 -72 14 -178q0 -90 3 -180q8 -53 18 -158q0 -10 -5 -30.5t-5 -28.5q-2 -14 5 -37t9 -33q1 -9 1 -19q0 -21 -3 -50q-6 -59 -7 -69.5t-3 -100.5q2 -18 0 -54q25 0 74 -2q23 0 59 -12q12 -10 18 -29q1 -6 2 -11q0 -10 -6 -17 q-23 -27 -88 -29q-14 -1 -34 -1q-39 0 -99 3q-59 119 -176 360q-51 111 -158 332q-43 68 -123 207q-18 39 -59 139q6 -37 29 -383q10 -53 22 -159q0 -10 -4 -31t-6 -29q0 -14 8 -35q8 -27 8 -34q2 -14 2 -32.5t-2 -39.5q-6 -59 -6 -72q0 -8 2 -100q0 -53 -4 -66q6 4 12 0 q8 -6 11 -8q8 8 26 17q10 -4 35 -11q14 0 43 -6q10 -4 14 -37q2 -37 -6 -53q-2 -8 -18 -6q-20 2 -23 2q-31 -4 -66 -4q-24 0 -50 2q-12 0 -35 -11.5t-33 -11.5t-27.5 5.5t-25.5 5.5q-16 -6 -43 -4q-14 8 -19 47q-2 29 2 41q8 0 21 8q4 4 8 0q16 -12 21 -10q10 4 30 14 q12 4 45 4q-16 18 -18 47q1 19 1 49t-1 70q-12 156 -14 411q0 41 -12.5 121t-14.5 117q4 61 6 186q0 18 -6 60.5t-6 64.5q0 12 2 27q-31 -1 -55 -1t-41 1q-55 6 -78 23q-18 14 -19 32q0 11 6 23z" />
<glyph unicode="O" d="M16 688q0 246 93 381q31 51 106 139q66 55 145 56q100 0 185 -80q113 -109 168 -310q20 -76 26 -149v-23q0 -43 5.5 -110t5.5 -88q0 -9 -15 -117q0 -4 -2 -14q-10 -51 -59 -154q-63 -131 -127 -186.5t-137 -57.5h-11q-135 0 -237 146q-146 207 -146 567zM109 604 q8 -221 118 -387q92 -135 181 -139h6q68 0 129 78q57 72 92 243q8 45 22 133q2 6 2 21q0 22 -4 64q-6 71 -10 88q-8 53 -33 155q-43 145 -116 223q-62 66 -129 66h-5q-102 -4 -181 -165q-73 -149 -73 -348q1 -16 1 -32z" />
<glyph unicode="P" horiz-adv-x="819" d="M-133 1133q-1 6 -1 11q0 14 7 21q23 25 82 29q39 4 121 6q100 6 299 19q18 1 36 0q179 0 275 -95q102 -96 117 -268q2 -20 2 -39q0 -94 -43 -165q-51 -85 -170 -130q-127 -49 -250 -59q-24 -2 -45 -2q-49 0 -84 10q8 -35 18 -106q0 -10 -4 -30t-4 -28q0 -14 8.5 -36.5 t10.5 -30.5q-2 -47 -2 -142q0 -2 2 -96q1 -20 0 -34q0 -29 -2 -36q10 4 12 5l22 -11q12 8 35 15q14 -6 45 -13q20 0 58 -8q10 -4 14 -31q2 -33 -4 -48t-19 -17q-14 2 -43 4q-34 -3 -65 -3q-41 0 -76 5q-33 4 -51 0q-16 -8 -51 -16q-12 0 -35 6t-35 8q-20 -6 -57 -4 q-20 11 -20 46q0 15 3 34q2 14 13 16q8 -2 20 0q0 2 17 -6q8 -6 18 -6q8 0 26.5 7t26.5 9q12 0 68 -2q-14 18 -19 43q0 39 -2 115q-16 154 -24 401q0 41 -15.5 118t-17.5 114q2 59 2 180q-8 41 -14 123q0 6 -1 12q0 48 15 72l-104 -4q-16 0 -29 -1q-52 0 -65 7q-15 8 -21 31 zM160 1102q6 -16 10 -51v-25q0 -14 4 -20q4 -4 0 -25q-4 -6 -6 -17.5t-2 -23.5q0 -6 -1 -12q0 -25 7 -56q12 -55 31 -315q35 2 104 4q-4 2 21 2q23 2 34 -2q16 -4 34 -4q42 0 93 21q119 47 175 124q47 66 45 152q0 119 -66 180q-27 25 -106 53q-23 10 -43 19q-23 11 -42 10 h-6q-20 -4 -64 -11q-34 -6 -83 -6q-14 0 -29 1q-112 2 -110 2z" />
<glyph unicode="Q" horiz-adv-x="845" d="M16 397q0 96 17 203q37 229 110 350q25 41 82 97q35 39 117 104q58 31 112 31q21 0 42 -4q96 -20 159 -117q82 -129 93 -338q1 -20 1 -40q0 -55 -9 -110q-11 -74 -23 -163q-4 -37 -49 -164q0 -4 -4 -13q-20 -47 -89 -139q20 -18 43 -45l7 -31q14 -10 34 -32q6 -18 19 -58 q14 -20 33 -67q4 -18 -18.5 -34.5t-43.5 -16.5q-2 0 -3 -1q-16 0 -28 21q-12 23 -22 43q-41 61 -84 143q-47 -53 -96 -79q-55 -32 -111 -32l-33 3q-135 25 -204 194q-52 127 -52 295zM109 436q0 -139 45 -256q68 -176 163 -176q51 0 105 41q23 16 43 43q-14 16 -43 51 q-8 29 -33 84q-2 4 -27 35q-16 20 -14 37q0 20 23.5 37.5t46.5 13.5q10 0 16 -16q6 -8 15 -23q-2 -4 -3 -12q2 -20 23 -41l35 -35q10 -14 22 -41q20 41 90 213q37 88 38 118q0 14 -3.5 36t-3.5 28v68q1 20 1 37t-1 31q-6 160 -57 256q-47 88 -115 100q-10 2 -20 2 q-89 0 -185 -127q-161 -211 -161 -504z" />
<glyph unicode="R" horiz-adv-x="862" d="M-16 27q10 -2 24 4q2 2 15 -8q6 -6 14 -7q8 0 20.5 5.5t18.5 5.5q10 2 59 -4q-10 18 -12 38q4 37 6 109v38q0 137 12 341q0 8 1 17q0 37 -7 94q-8 73 -8 108q6 57 16 170q-4 39 -4 117q2 27 13 75l-74 3q-3 0 -7 -1q-30 0 -77 15q-12 10 -17 31q-2 23 9 32q23 23 73 23 q37 0 111 -4q84 0 258 -3t268 -112q80 -92 80 -262q2 -117 -45 -184q-59 -84 -166 -117l-22 -6q43 -16 67 -39q47 -41 68 -107q16 -51 18 -129v-133q-8 -20 -12 -61q6 -12 18 -33q6 -14 21 -37q29 -31 68 -33q25 8 71 13q8 -2 29 -19q12 -12 16 -22q2 -7 2 -13 q0 -24 -32 -41q-38 -19 -79 -19q-20 0 -40 5q-61 14 -101 43q-74 53 -75 162q0 31 11 96.5t11 95.5q0 55 -24 91q-33 53 -43 67q-29 35 -58 51q-12 4 -66.5 16.5t-68.5 12.5q-68 0 -108 16q10 -74 8 -98q-4 -16 -13 -53q0 -12 6.5 -35t6.5 -31q1 -6 0 -13q0 -22 -4 -52 q-8 -55 -11 -66q-2 -35 -6 -106q0 -16 -4 -43h4l19 -13q10 6 30 13q12 -6 39 -17q16 -2 49 -10q10 -6 9 -41q0 -35 -13 -51q-6 -8 -22 -4q-23 6 -27 6q-57 0 -131 14q-27 -6 -80 -12q-18 8 -57 18q-18 -4 -51 3q-13 9 -13 39q1 24 9 51zM225 954q-2 -14 4 -43q4 -32 4 -131 q0 -67 -2 -164q10 2 25 2q8 0 30.5 -3t35.5 -3q4 2 16 2q16 -2 35 -6q8 0 33 -6q39 0 90 21q94 39 141 102q41 57 47 135q1 14 1 28q0 89 -46 142q-10 12 -78 51q-23 18 -72 37q-2 0 -65 -6q-12 -1 -27 -1q-30 0 -69 5q-78 10 -97 10q8 -25 9 -47v-22q2 -4 -9 -60 q-6 -20 -6 -43z" />
<glyph unicode="S" horiz-adv-x="782" d="M16 918q0 145 93 247q84 96 215 109q15 1 29 1q126 0 210 -95q58 -67 58 -130v-12q-2 -23 -11 -32q-20 -23 -45 -7q-12 10 -32.5 47t-32.5 52q-18 27 -39 41q-4 2 -12 8q-63 41 -116 41h-5q-82 -2 -135 -64q-68 -78 -69 -190q0 -9 1 -19q6 -100 88 -159q53 -37 162 -80 q119 -49 166 -76q78 -47 129 -125q55 -84 55 -168q0 -61 -47 -172q-33 -76 -80 -119q-78 -72 -190 -71q-111 0 -199 55q-78 45 -125 131q-42 76 -42 154q0 10 1 20q2 55 20 72q10 6 25 10q16 2 24.5 -5t14.5 -34q10 -45 20.5 -93t32.5 -87q33 -57 78 -84q56 -30 120 -30 q11 0 23 1q92 6 154 78q59 69 59 164v6q-2 74 -31.5 127t-90.5 92q-51 33 -191 84q-127 45 -184 92q-101 84 -101 220z" />
<glyph unicode="T" horiz-adv-x="782" d="M-49 1036l4 80q1 29 1 79.5t-1 123.5q158 -16 471 -41q59 2 182 4q33 0 199 -25q-2 -6 -14 -184q-4 -53 -7 -65q-6 -37 -25.5 -59.5t-55.5 -10.5q-18 8 -23 29q2 18 4 55q0 6 3 16.5t9 28.5q10 32 10 71q0 17 -1 36q-9 -1 -25 -1q-68 0 -256 15q10 -25 12 -47 q0 -18 -5 -54t-5 -55q0 -141 -16 -370q0 -9 -1 -19q0 -36 5.5 -92t5.5 -88v-17q-8 -57 -19 -167q2 -39 3 -115q-4 -35 -17 -51q20 8 33 8q12 0 32.5 -7.5t30.5 -7.5q20 4 56 3q14 -10 16 -50q0 -29 -5 -39t-15 -10t-17.5 4t-25.5 11q-8 0 -21.5 -6.5t-19.5 -6.5 q-3 -1 -20.5 -1t-49.5 1q-41 -8 -88 -14q-6 4 -21 10q-10 -6 -32 -14q-12 6 -41 14q-18 0 -54 8q-10 4 -12 39t10 51q4 10 23 7q25 -6 29 -7q20 2 43 2q35 0 75 -4q-12 12 -12 37q0 6 2 23q-2 2 10 59q4 18 7 41q0 14 -5 43q-5 44 -5 101q0 29 1 61l9 164q-8 49 -11 147 q4 16 13 54q2 12 -4.5 33.5t-8.5 29.5q0 25 6 64q10 53 13 65q2 35 8 104q0 23 8 62q-14 0 -52 -3t-58 -3q-8 2 -33 10t-37 6q-8 0 -22.5 -5t-22.5 -5q-23 2 -53 6q-10 -61 -13 -135q2 -31 -10 -86q-10 -14 -33 -19q-23 -4 -35 9q-24 22 -26 69z" />
<glyph unicode="U" horiz-adv-x="839" d="M-45 1180v14q0 26 6 39q2 6 16 4q18 -2 23 -2q18 2 39 2q31 0 67 -4q10 -2 31 8t31 10q2 0 4 1q8 0 19 -6q15 -7 24 -7q14 6 41 4q10 -8 14 -47q0 -31 -4 -43q-8 0 -18 -6q-2 -4 -10.5 4t-14.5 8t-16 -6t-12 -8q-12 -4 -35 -2q6 -23 8 -45.5t2 -44.5q0 -12 -2 -42t-2 -46 v-11q-6 -43 -16 -131q-2 -31 -2.5 -69t2.5 -84q6 -147 6 -152q6 -225 43 -332q29 -80 75 -112q34 -27 76 -27h6q63 0 103 41q14 16 61 113q16 35 37 104q4 84 4 205q0 47 6 129q8 90 8 127l7 192q0 27 4 82q-4 0 -9.5 6.5t-9.5 6.5q-4 -6 -14 -15q-8 -2 -18 4q-16 8 -19 9 q-14 2 -41 8q-8 6 -8 41q-2 35 8 51q2 8 17 4q18 -4 22 -4q13 1 27 1q36 0 80 -7q18 8 61 16q14 -6 47 -14q14 6 41 2q10 -10 12 -49q0 -29 -6 -41q-8 0 -18 -6q-4 -4 -13 8q-6 4 -12 4q-6 2 -16 -4t-12 -8q-12 -2 -33 0q8 -25 8 -64q1 -23 1 -57.5t-1 -81.5q-4 -92 -4 -342 q0 -289 -101 -438q-35 -51 -96 -84q-58 -31 -115 -31h-8q-127 4 -209 125q-96 146 -96 370q0 33 2 68q6 125 13 412q0 76 8 127q2 25 8 73l-2 -2q-2 -2 -4 -2t-8.5 6.5t-10.5 4.5q-4 -4 -14 -13q-6 -4 -19.5 3.5t-17.5 7.5q-14 0 -41 6q-8 4 -10 39z" />
<glyph unicode="V" horiz-adv-x="622" d="M-188 1190q0 7 -1 14q0 26 7 39q4 8 18 6q23 -4 25 -4q20 2 43 2q35 0 76 -4q12 -2 34.5 8.5t32.5 10.5h5q9 0 23 -6q17 -7 25 -7q16 6 45 4q12 -8 15 -47q2 -31 -2 -43q-10 0 -23 -6q-2 -4 -8 0q-14 12 -18 12q-6 0 -17.5 -6t-15.5 -8q-12 -4 -39 -2q8 -37 26 -106 q2 -8 5 -21q2 -20 6 -63q8 -70 49 -201q33 -102 67 -281q43 -211 62 -284q18 82 63 243l31 56q6 35 21 104q10 45 69 188q29 92 96 273q-23 -8 -20 -10q-6 6 -16 12q-8 -6 -29 -14q-10 6 -33 14q-16 0 -45 8q-8 4 -10 39q0 35 10 53q4 6 19 4q20 -4 24 -4q10 0 21 1 q42 0 96 -7q23 8 69 17q16 -6 54 -15q16 4 45 2q12 -10 12 -49q0 -43 -9 -43t-18 -4q-2 -2 -14 8q-6 4 -12 4t-17.5 -6t-15.5 -6q-10 -2 -25 -2q2 -27 -8 -70t-43 -141q-59 -184 -180 -557q-88 -279 -108 -277q-27 8 -66 19q-4 0 -16.5 16.5t-14.5 26.5q-31 96 -80 295 q-29 162 -98 485q-35 133 -45 207q-5 43 -5 63q0 7 1 11l-8 -4q-6 4 -19 10q-8 -6 -26 -14q-10 6 -35 12q-14 0 -43 6q-10 6 -12 39z" />
<glyph unicode="W" horiz-adv-x="1144" d="M-106 1221q27 16 82 15q17 0 36 -1q45 -2 146 -14q-12 -266 -29 -676q-1 -29 -1 -57q0 -166 42 -283q27 -76 68 -113q33 -33 69 -33h4q35 0 64 50q27 41 47 122q39 166 47 316q1 38 1 86t-1 106q-6 164 -6 193q0 86 6 131q4 29 8 41q6 23 21 31q23 12 39 2q14 -8 22 -47 q0 -51 4 -152q0 -10 2 -29q-4 -25 -8 -73q-3 -34 -3 -78.5t3 -100.5q8 -135 9 -175t9 -109q0 6 5 -13q2 -43 16 -129q18 -68 75 -122q52 -51 109 -52h8q45 2 76 39q43 49 64 162q11 54 11 160q0 70 -5 164q4 41 8 118q-10 49 -27 150q-4 115 -32 338l-9 41q41 4 127 12 q25 2 43 2q36 0 48 -8q23 -16 22 -33q0 -9 -6 -18q-16 -27 -66 -37q-20 -4 -49 -6q51 -312 52 -540q0 -9 -1 -17q-2 -299 -51 -455q-29 -86 -76 -131t-120 -49q-7 0 -15 -1q-86 0 -155 68q-63 63 -105 172q-45 -133 -116 -186q-45 -33 -95 -33q-61 0 -116 41 q-66 47 -113 150.5t-55 179.5q1 17 0 39q0 65 -4 170q-2 19 -3 50q0 87 17 273q4 45 16 258q-33 4 -100 17q-23 2 -55 24q-13 20 -14 33q1 11 10 17z" />
<glyph unicode="X" horiz-adv-x="899" d="M16 27q0 31 4 43q8 0 19 6q4 4 11 -5.5t13 -9.5q4 0 14.5 6.5t14.5 6.5q6 2 47 0q10 27 27 61q2 6 12 25q4 12 21 45q29 37 34 47q12 23 23 55q25 78 123 279q-31 45 -86 139q-23 57 -70 170q-23 35 -61 109q-12 29 -33 88h-10q-14 6 -45 14q-14 -6 -39 -2q-10 10 -10 49 q0 29 4 41q8 0 18 6q2 4 12 -8q4 -4 11 -4q6 -2 15 4t13 8q4 0 52 -2q23 0 44 7t19 7q2 0 7 -6t9 -6q4 6 15 14q8 2 20 -5t17 -9q12 0 36 -8q8 -4 9 -39q2 -35 -9 -53q-2 -6 -14 -2q-18 4 -22 4q-25 -2 -58 0q16 -27 27 -49q6 -14 22 -62q8 -39 39 -82q47 -66 117 -211 q12 41 41 119q14 16 39 53q4 25 18 72q25 43 76 131q20 45 66 131q-12 6 -41 15q-14 -6 -39 -2q-10 8 -10 47q-2 31 4 43q8 0 18 6q2 4 12 -8q4 -6 11 -7q6 0 15 6.5t13 6.5q4 2 51 0q23 -2 44.5 6t19.5 8q2 0 7 -7t9 -5q4 6 15 12q3 1 6 1q6 0 14 -5q12 -8 17 -8 q12 0 36 -8q8 -4 9 -39q2 -37 -9 -54q-2 -6 -14 -4q-18 4 -22 4q-8 -1 -17 0q-26 0 -57 5q10 -27 -4 -62q-20 -37 -60 -113q-78 -150 -215 -454q31 -41 82 -131q4 -18 17 -58q16 -18 43 -55q16 -45 51 -133q4 -6 40 -85t40 -114l14 8q4 0 9 -6t9 -6q4 6 15 15q6 2 19.5 -5.5 t15.5 -7.5q14 -2 38 -8q8 -6 9 -41v-11q0 -26 -9 -40q-2 -8 -16 -4q-18 4 -20 4q-12 -1 -26 -1q-34 0 -77 7q-18 -8 -59 -16q-14 6 -45 14q-14 -4 -39 -2q-10 10 -10 49q-2 31 4 41q6 0 18 6q2 4 12 -8q4 -4 11 -4q6 0 17 6t20 8q-12 18 -25 39q-14 37 -49 107 q-66 123 -152 311q-16 -47 -55 -113q-51 -88 -61 -110q-18 -55 -74 -156q8 -6 23.5 -9t39.5 -11q6 -4 8 -39q0 -37 -8 -54q-4 -6 -16 -4q-18 4 -21 4h-18q-38 0 -84 7q-20 -8 -59 -17q-16 8 -47 17q-14 -6 -39 -2q-11 8 -11 47z" />
<glyph unicode="Y" horiz-adv-x="757" d="M-86 1139q0 43 9 44t20 5q2 2 14 -8q6 -6 14 -6q6 0 18.5 6t16.5 6q4 2 62 0q37 6 77 14q6 -6 19 -12q8 8 29 14q12 -6 36 -14q16 0 47 -8q8 -4 11 -39q0 -37 -11 -54q-4 -8 -20 -4q-23 4 -25 4q-13 -1 -27 0q-28 0 -61 3q12 -25 45 -84q2 -4 9 -13q6 -14 8 -37 q6 -45 47 -108q33 -49 160 -326q41 86 65 152q8 33 31 94q12 14 33 43q4 8 18 66q12 41 45 98q53 88 58 96q18 39 59 121q-6 -2 -8 -2q-18 6 -58 16q-16 -6 -47 -2q-12 8 -14 47q0 43 9 44t20 5q2 2 14 -8q6 -6 14 -6t19.5 6t15.5 6q6 2 64 0q37 6 75 13q6 -4 19 -11 q10 6 28 13l37 -13q16 0 47 -8q10 -6 11 -39v-11q0 -28 -9 -42q-6 -8 -20 -4q-23 4 -27 4q-11 -1 -23 0q-36 0 -79 4q4 -14 2 -41q-2 -14 -14 -47q-27 -51 -75 -154.5t-144 -314.5q-43 -84 -127 -256q6 -4 -5 -12h-2l-6 -14v-5q0 -8 6.5 -20t6.5 -18q1 -3 1 -20t-1 -48 q8 -41 14 -86q-4 -6 -10 -21q6 -10 14 -30q-6 -14 -14 -41q0 -20 -9 -53q10 4 15 4q6 -4 20 -13q10 8 33 15q12 -6 41 -15q18 -2 53 -10q10 -4 13 -39q0 -37 -13 -53q-4 -5 -12 -6q-4 0 -10 2q-27 6 -29 6h-22q-55 0 -123 8q-27 -6 -84 -14q-20 8 -64 16q-20 -4 -55 0 q-14 10 -14 49q0 29 6 39.5t14 7.5q10 0 23 -2q4 -6 22 -12q8 0 21.5 5t19.5 7q10 0 66 -4q-6 4 -13.5 8.5t-3.5 20.5q6 27 4 29v24q0 51 6 115q2 14 -8 41t-10 39t7 32.5t7 30.5q-4 18 -2 54q-41 66 -80 161l-65 168q-47 82 -121 258q-12 31 -27 90q-18 -8 -28 -8 q-18 8 -58 17q-16 -6 -47 -2q-14 8 -14 47z" />
<glyph unicode="Z" horiz-adv-x="892" d="M16 -53q135 233 396 704q49 102 149 305q45 88 131 230q-131 0 -215 -4q-74 -8 -221 -21q0 -59 -6 -102t-23 -58q-23 -23 -41 -6q-20 14 -28 90q0 55 -6 170h14h-4h-2q-2 2 8 2h12q23 2 53 5q49 -2 152 -2q94 2 246 18q201 23 246 27q-158 -276 -455 -836 q-25 -55 -78 -160q-39 -57 -108 -176q-12 -29 -35 -84q53 0 282 -22q47 -6 246 -21q-2 43 -4 125q0 70 10 88q17 28 35 28q8 0 16 -5q12 -8 25 -60q16 -68 25 -282q-273 16 -820 47z" />
<glyph unicode="[" horiz-adv-x="440" d="M16 952q6 102 9 303q20 2 106 9q63 4 105 4q63 -2 69 -2q39 -4 62 -23q29 -27 6 -55q-12 -16 -45 -19q-23 0 -68 -2q6 0 -10 -2q-45 8 -141 11l18 -203q0 -135 6 -408q8 -59 17 -180q-6 -35 -9 -104q8 -35 17 -105q0 -33 -5.5 -94.5t-5.5 -89.5q27 -2 121 -8 q27 0 56.5 -2t44 -13.5t18.5 -29.5q6 -20 -4 -31q-27 -29 -129 -25q-68 6 -205 15q0 246 -8 739q-13 104 -25 315z" />
<glyph unicode="\" horiz-adv-x="507" d="M25 1059q-8 33 4 47q23 23 55 14q27 -6 45 -59q8 -41 31 -121q25 -55 67 -172q12 -76 52 -229q84 -238 124 -387q14 -35 39 -111q14 -53 -18 -68q-41 -20 -59 4q-10 12 -29 64q-10 31 -33 94q-20 41 -53 131q2 23 -6 70q-12 16 -29 53q-8 51 -33 156q-27 117 -53 231 q-37 150 -82 215q-4 14 -14 45q-4 9 -8 23z" />
<glyph unicode="]" horiz-adv-x="440" d="M12 -61q4 18 17.5 28t101.5 17l121 8q0 29 -5 90t-5 94q6 35 16 105q-4 35 -8 104q6 59 16 180q0 137 8 408q6 68 17 203q-47 -4 -141 -11q-16 2 -11 2q-23 0 -67 2q-33 2 -45 19q-20 29 6 53.5t131 26.5q41 0 104 -4q86 -6 107 -9q6 -100 8 -303q-10 -104 -25 -315 q0 -248 -8 -739q-68 -6 -205 -15q-102 -4 -129 25q-10 11 -4 31z" />
<glyph unicode="^" horiz-adv-x="681" d="M16 557q0 25 27 86l295 655q41 -80 115 -243q37 -115 125 -340q29 -63 40 -105q18 -59 7 -82q-16 -29 -52 -24q-16 4 -28 26l-19 50q-4 4 -7 16t-5 33q-10 45 -51 116q-33 57 -70 156q-47 133 -59 162q-16 -57 -55 -168q-12 -12 -31 -41q-6 -25 -19 -76q-2 -8 -49 -90 q-10 -14 -53 -108q-10 -25 -41 -66q-12 -8 -33 -6q-20 4 -28.5 17.5t-8.5 31.5z" />
<glyph unicode="_" horiz-adv-x="1097" d="M16 33q-14 31 0 55q8 16 29 18q8 0 26.5 -1t57.5 -9q18 -6 39 -6q14 0 41 4q59 10 151 6q164 -4 154 -4q20 0 65.5 6.5t69.5 6.5q16 -6 51 -15q10 0 31 6t29 6q23 2 59 -4q51 -10 62 -10q4 0 84 -6q20 0 57 -8q25 -12 18 -55q-4 -33 -45 -37q-35 4 -108 6 q-131 -2 -346 12q-37 2 -101 -4q-70 -8 -102 -8q-51 8 -156 16q-35 -2 -106 -2q-48 4 -60 27z" />
<glyph unicode="`" horiz-adv-x="331" d="M16 1550q4 33 64 47q16 4 22 -2q0 -8 9 -18q4 0 4 -8l-4 -8q-2 -10 5 -19.5t23.5 -28t32.5 -61.5t33 -61q10 -6 20 -19q-2 -8 0 -24q10 -6 27 -23q0 -16 6 -45q8 -16 16 -53q2 -10 -22 -25q-35 -20 -59 -16q-10 0 -15 18q-6 27 -8 29q-31 55 -59 133q-20 23 -52 70 q-4 23 -16 65q-2 6 -14.5 22.5t-12.5 26.5z" />
<glyph unicode="a" horiz-adv-x="641" d="M16 133v15q0 98 52 147q27 14 77 47q27 23 82 57q63 18 125 39q78 29 105 72q-2 123 -64 195q-43 47 -112 47q-57 0 -80 -50q-8 -35 -27 -104q-10 -37 -41 -45q-25 -6 -39 10q-13 14 -12 54v12l6 49q2 4 2 12q6 27 41 68q72 90 180 90q104 0 162 -70q61 -78 74 -237 q6 -8 6 -37t-4 -37q8 -170 8 -166q0 -14 -8 -45t-8 -49q0 -10 6 -53q4 -35 2 -56l-25 -172l60 -8q29 0 80 -20q12 -10 14 -33q0 -23 -12 -33q-19 -15 -65 -15q-18 0 -40 3q-47 8 -145 20l4 58q4 31 8 96q-72 -74 -178 -74h-6q-104 0 -170 68q-54 57 -58 145zM108 123 q0 -44 33 -70q29 -20 103 -24q9 0 18 -1q96 0 127 42q16 37 49 108l15 197q-84 -35 -244 -113q-101 -56 -101 -139z" />
<glyph unicode="b" horiz-adv-x="739" d="M-86 74q-3 9 -3 17q0 23 23 34q16 8 43 8q13 0 29 -2q25 -2 78 -10q2 92 12 276q12 125 29 375q-6 74 -6 221q2 37 16 154q11 81 11 136q0 9 -1 17h-19q-94 0 -122 19q-16 10 -20 35q-6 25 8 38q12 12 48 11h11l86 -6q2 2 6 2q29 -6 93 -19q-1 -12 -1.5 -51.5t1.5 -105.5 v-40q0 -83 -7 -198q-16 -229 -16 -237q14 16 55 55q23 23 70 59q39 24 83 24q12 0 23 -1q66 -10 115 -60q86 -88 113 -233q11 -53 11 -97q0 -13 -1 -24q-2 -61 -10 -149q-2 -14 -21 -74q0 -4 -2 -12q-10 -25 -61 -97q-59 -78 -110 -107q-42 -25 -84 -25q-9 0 -17 1 q-115 10 -182 139q-8 -45 -19 -135q-55 6 -168 19q-41 6 -57 10q-31 10 -37 33zM225 461q-2 -19 -1 -38q0 -119 67 -226q47 -76 96 -88q9 -2 18 -3q36 0 74 33q35 29 68 113q10 31 33 92q4 14 8 64q1 24 1 39.5t-1 23.5q-4 33 -15 100q-14 92 -61 150q-37 43 -80 47 q-6 1 -11 1q-59 0 -114 -77q-70 -96 -82 -231z" />
<glyph unicode="c" horiz-adv-x="643" d="M16 326q-1 40 -1 77q0 124 16 213q23 127 106 199q53 45 115 51q12 1 23 1q92 0 165 -58q118 -95 118 -212q0 -9 -1 -19q-4 -33 -33 -43q-27 -12 -45 14q-10 35 -41 100q-4 8 -12 25.5t-27 54.5q-25 33 -57 43q-16 5 -35.5 5t-42.5 -5q-86 -20 -133 -182 q-27 -92 -27 -191q0 -125 43 -233q8 -37 35 -109q6 -10 35 -30q66 -49 111 -52q43 0 80.5 19.5t60.5 68.5q2 4 23 82q12 49 40 60q14 8 27 4q14 -6 24 -35q6 -17 5 -40q0 -15 -2 -34q-14 -102 -94 -168q-66 -55 -156 -63q-12 -1 -24 -1q-48 0 -93 19q-66 31 -113 101 q-84 125 -90 338z" />
<glyph unicode="d" horiz-adv-x="729" d="M16 344q-1 11 -1 24q0 44 12 101q33 145 123 229q57 53 131 60q11 1 22 1q113 0 201 -114q-12 86 -29 260v43q0 116 -8 316q113 12 172 12q45 0 55 -2q31 -2 47 -17q29 -25 11 -55q-10 -16 -41 -20q-20 0 -62 -4q4 0 -8 -2h-20q-20 4 -64 8q0 -20 16 -156q10 -90 17 -242 q6 -182 13 -241.5t20 -173.5q-6 -33 -7 -101q8 -33 19 -100q-2 -72 -4 -217q39 2 114 6q49 2 62 -10q20 -21 20 -37q0 -12 -12 -23q-29 -27 -123 -34q-47 -4 -155 -9q0 43 -5 103q-76 -94 -176 -99h-12q-61 0 -117 35q-86 53 -142 155.5t-54 201.5q0 8 -7.5 50t-7.5 52z M104 303q-2 -10 -2 -18q0 -13 7 -19q14 -18 22 -59q10 -49 16 -64q0 -2 5 -10l8 -18q6 -25 24 -74q23 -41 70 -69q39 -23 77 -22l17 1q70 10 121 98q39 66 49 156q-2 57 -4 155q-10 57 -31 103q-12 23 -39 69q-14 33 -53 86q-30 25 -91 25h-9q-47 -2 -90 -43 q-72 -68 -88 -240q-3 -20 -9 -57z" />
<glyph unicode="e" horiz-adv-x="671" d="M16 344q0 125 37 248q35 117 94 178q47 51 111 61q29 5 57 6q48 0 91 -16q53 -20 98 -71q88 -100 110 -355l-53 -8q-94 -14 -186 -31q-99 -17 -161 -17q-12 0 -24 1q-47 2 -61 16l2 -28q-2 -18 -2 -45.5t2 -63.5q4 -23 29.5 -77t38.5 -72q23 -39 49 -64q35 -29 78 -29h6 q98 2 139 78q4 10 25 82q14 49 41 64q16 6 26 2q12 -6 23 -41q5 -18 5 -40q0 -11 -1 -24q-16 -111 -105 -172q-55 -41 -145 -49q-11 -1 -21 -1q-63 0 -118 32q-72 41 -117 129q-68 133 -68 307zM127 410q18 16 76 26q29 2 84 10q-10 0 24 5q27 2 56 0q9 -1 19 -1 q52 0 132 17q-35 156 -112 225q-49 44 -115 44q-10 0 -21 -1q-43 -4 -77 -51q-47 -66 -62 -166q-5 -32 -5 -77q0 -15 1 -31z" />
<glyph unicode="f" horiz-adv-x="583" d="M-25 635q2 14 9 18q18 2 53 11q43 12 80 20q-23 176 -23 346v29q0 84 4 115q4 63 27 108q45 90 133 107q26 5 51 5q64 0 117 -34q100 -63 139 -205q15 -57 15 -97q0 -31 -9 -52q-13 -26 -34 -26q-10 0 -21 5q-18 8 -27 41q-4 27 -16 84q0 -6 -2 8q-4 35 -22 94 q-23 51 -68 71q-24 11 -51 11q-23 0 -47 -8q-59 -18 -86 -125q-15 -62 -15 -135q0 -40 4 -84q2 -29 21 -121q13 -65 12 -108v-13q23 16 68 35q25 0 75 4q6 2 27 11.5t33 5.5q37 -8 37 -55q0 -11 -2 -23t-11.5 -13t-14.5 -6.5t-15 -1.5q-2 2 -19 7q-12 0 -30 -13 q-25 -14 -33 -16q-29 -6 -90 -21l-11 -2q10 -27 25 -80q6 -59 25 -174q16 -74 49 -219q23 14 67 35q29 2 84 8q8 2 28.5 12.5t31.5 10.5q25 0 36 -27q10 -23 9 -43q0 -22 -17 -24q-29 -8 -26 -9q-4 2 -10 7q-18 4 -41 -11q-35 -23 -39 -22q-51 -10 -148 -45q-10 -8 -26 -19 q-10 2 -29 4q-10 -12 -37 -26q-16 2 -53 0q-72 -12 -68 -13q-12 0 -24.5 29t-8.5 45q2 14 25 20.5t43 12.5q47 14 109 31l-2 2q-10 25 -25 94q-29 123 -78 367q-6 -6 -18 -13q-16 2 -49 2q-66 -6 -62 -8q-12 2 -22 31q-7 20 -8 35q0 5 1 10z" />
<glyph unicode="g" horiz-adv-x="696" d="M16 469q-2 27 -1 54q0 63 10 126q2 25 16 74q14 29 78 104q12 18 45 54q49 37 104 39h5q92 0 169 -86q-2 23 -10 67l-8 39q82 12 125 16q20 2 35 3q25 0 34 -7q26 -15 27 -33q0 -9 -6 -18q-20 -31 -98 -45q55 -319 67 -516q5 -90 5 -190.5t-5 -210.5q-6 -147 -12 -197 q-16 -111 -59 -184q-33 -55 -95.5 -93t-124.5 -38q-106 0 -178 47q-84 53 -106 151q-10 42 -10 73q0 43 18 66q10 12 33 11q23 -2 30 -17q12 -20 19 -61q6 -47 14 -66q4 -8 12.5 -26.5t32.5 -55.5q35 -35 96 -35q17 0 35 3q47 6 82 37q43 37 72 112q53 135 53 340 q0 25 -16 215q-47 -82 -92 -117.5t-97 -40.5q-8 -1 -16 0q-97 0 -172 93q-97 114 -111 313zM106 473q0 -133 99 -242q57 -61 104 -65h4q45 0 86 45q31 33 52 119q6 31 20 94q6 22 6 49q0 22 -4 47q-10 41 -35.5 122t-70.5 123q-41 38 -84 38h-9q-68 -4 -118 -95.5 t-50 -234.5z" />
<glyph unicode="h" horiz-adv-x="759" d="M-86 96q4 16 35 29q12 4 55 0q18 -2 80 -10q4 92 14 276q12 125 27 375q-4 72 -6 219q2 39 16 154q12 96 12 153q-111 0 -143 21q-14 8 -20 33q-4 27 10 39t57 12q31 -2 88 -6h4q31 -6 95 -17q-2 -13 -2 -52.5t2 -104.5v-30q0 -94 -11 -243q-14 -193 -16 -270 q49 68 94 90q54 29 115 29q17 0 35 -2q102 -12 159 -103q33 -51 56 -129q18 -70 18 -84q-6 -25 -12 -72q4 -35 6 -102q-12 -63 -31 -190q-4 -35 -14 -105l12 -10q4 6 17 12q6 2 18 -6t14 -8q14 -2 39 -12q6 -4 6 -39q-2 -35 -12 -52q-3 -5 -11 -4h-5l-21 7q-43 0 -100 12 q-20 -6 -59 -12q-14 8 -46 18q-14 -6 -38 0q-10 10 -9 49q0 20 11 43q6 0 16 2q2 4 9 -5t14 -9q4 0 14 5t14 5q10 2 25 0q-4 16 -4 35q2 27 12 100q8 92 22 273q2 32 3 59q0 100 -29 152q-20 39 -51 53q-14 8 -56 8h-8q-112 0 -155 -55q-14 -18 -46 -109q-10 -27 -18 -37 q0 -20 -9 -59t-7 -57q0 -16 4 -68q3 -29 2 -50v-20q-10 -74 -27 -221l-143 17q-27 2 -56.5 5t-48.5 17q-19 12 -19 33q0 8 3 18z" />
<glyph unicode="i" horiz-adv-x="403" d="M4 711q25 14 113 14q16 -1 33 -1q51 0 108 5q2 -32 2 -74.5t-2 -96.5t-2 -97t2 -76q2 -31 10 -102q10 -82 11 -97q-3 -41 -3.5 -72t3.5 -53q0 -6 8 -43q4 -23 2 -36q16 8 26 8q25 -4 72 -8q6 0 31 6q18 6 28 0q24 -11 25 -52q0 -11 -2 -24q-2 -16 -11 -16t-20 -5 q-4 -4 -12 0q-20 10 -25 11q-18 -8 -55 -19q-45 0 -133 -14q-10 -6 -27 -12q-4 0 -12 5t-12 5q-6 0 -16.5 -8.5t-16.5 -8.5q-10 0 -25.5 4.5t-21.5 6.5q-20 -2 -59 2q-12 4 -17 31q-6 33 0 49t19 18q14 -2 45 -2q70 8 125 8q0 18 -2 51v-2l-3 2v2v5q0 14 3 16q0 2 -3 39 q0 4 -8 46t-8 112q0 41 -6 143q-6 20 -12 76q6 23 8 67q-6 12 -14 37q0 2 6 55q-12 2 -115 7q-18 0 -45 10q-11 14 -11 34q0 32 19 44zM80 913q4 33 34.5 58.5t65.5 25.5q41 0 58 -18q6 -18 24 -49q10 -16 10 -28q0 -10 -8 -15q-10 -20 -39 -58q-8 -7 -20 -7t-29 7 q-96 39 -96 84z" />
<glyph unicode="j" horiz-adv-x="421" d="M-291 -371q0 25 6 47q12 37 41 41q3 0 6 1q28 0 39 -37q4 -33 21 -99q0 -2 4 -8q12 -35 45 -86q35 -30 101 -30q15 0 30 1q68 8 113 72q57 74 80 223q13 84 12 164q0 35 -2 70q-4 39 -10 114q5 29 4 80v35q-8 39 -23 117q-6 111 -26 330q-6 43 -15 124q-14 -8 -43 -20 q-18 4 -55 6q-4 0 -20.5 -6t-24.5 -2q-14 6 -21 45q-6 31 -2 43q8 0 21 8q2 6 8 2q16 -10 20 -10q10 6 33 18q37 0 111 21q8 6 18 12q4 2 10.5 -3t10.5 -5t12 9t12 9q6 0 18.5 -4t18.5 -4q16 2 45 0q10 -4 17 -37q4 -17 4 -30.5t-4 -22.5q-2 -8 -19 -8q-23 2 -24 0 q-23 -4 -54 -8l2 -2q8 -31 21 -111q53 -430 53 -608q0 -203 -27 -412q-20 -152 -93 -228q-71 -75 -171 -75h-6q-141 2 -219 83t-78 181zM18 1102q4 33 36 58.5t65 25.5q43 0 57 -19q8 -16 27 -48q10 -17 10 -28q0 -10 -8 -16q-10 -20 -39 -55q-9 -9 -22 -9q-12 0 -27 7 q-99 39 -99 84z" />
<glyph unicode="k" horiz-adv-x="817" d="M-106 1159q0 35 65 39q29 0 86 2q4 2 6 2h27q23 -4 67 -10q0 -2 19 -195q4 -168 18 -503q10 -68 23 -205q0 -14 -6 -60l4 2q14 10 32.5 42t24.5 40q49 45 135 148q6 16 21 37l30 18q6 14 19 39q18 14 53 43l6 2q-12 4 -20 4q-16 -6 -45 -4q-12 8 -15 47q-4 31 2 41 q8 2 21 8q2 4 8 0q16 -10 21 -10q10 4 30 14q8 -1 19 0q35 0 92 11q25 10 20 10q4 0 9.5 -5t9.5 -5q8 8 24 16q12 -6 37 -12q14 0 43 -6q10 -4 15 -37q2 -37 -7 -54q-4 -8 -18 -6q-23 4 -25 4q-26 -5 -58 -4h-21q2 -16 -23 -37q-16 -16 -35 -32q-57 -55 -112 -113 q-90 -92 -90.5 -107.5t20.5 -31.5q31 -18 33 -23q25 -37 86 -102q10 -4 24 -14q0 -8 4 -25q14 -4 35 -21q4 -14 19 -43q31 -53 30 -55q12 6 15 6q4 -4 16 -10q8 8 27 14q10 -4 33 -12q14 0 43 -6q8 -4 10 -39q1 -10 1 -18q0 -22 -7 -35q-4 -6 -19 -4q-20 4 -22 4 q-25 -3 -53.5 -3t-61.5 3q-12 2 -33.5 -8.5t-32.5 -10.5q-10 0 -26.5 6.5t-26.5 6.5q-14 -6 -43 -2q-12 8 -14 47q-2 31 4 41q8 0 20 8q2 2 10.5 -5t16.5 -7q6 0 17.5 7t19.5 7q-55 61 -88 115q-16 29 -31.5 38t-44.5 33q-10 23 -37 66q-25 -16 -71 -57l-33 -43 q-18 -25 -39 -27q8 -47 10 -74q-4 -76 -6 -225l-145 4h-56q-33 2 -51 12q-27 16 -20 49q4 18 32 33q10 6 56 6q18 0 79 -4q1 13 1 29q0 46 -5 110q-6 106 -8 138q1 31 1 70q0 117 -5 304q-12 74 -27 220q3 52 3.5 129t-3.5 180q-46 -4 -78 -4q-45 0 -62 8q-29 14 -29 51z " />
<glyph unicode="l" horiz-adv-x="301" d="M-115 1114q-1 5 -1 10q0 13 10 21q27 25 106 26q2 0 160 -2q4 -98 10 -292q-1 -27 -1 -62q0 -102 5 -266q2 -41 16 -111q11 -47 11 -95v-15q-3 -65 -3 -118q0 -71 4.5 -120t4.5 -83v-21q-2 -25 -4 -39q10 6 33 12q12 0 36.5 -5t34.5 -5q20 6 60 4q23 -11 23 -49 q0 -13 -3 -29q-2 -14 -12 -18q-8 4 -21 0q-2 -4 -10 0q-20 12 -25 10q-18 -6 -55 -17q-7 0 -14 1q-45 0 -119 -11q-12 -6 -29 -10q-4 0 -11 4t-11 4q-6 2 -17.5 -6t-17.5 -8q-8 0 -23.5 5t-23.5 5q-20 0 -59 4q-10 4 -15 31q-4 33 0 49q6 16 19 19q16 -2 45 -3q51 5 94 5h29 q0 25 -5 73q0 -6 0 8q4 35 11 105q0 6 -13 94q-10 59 -10 160q-2 33 -12 192q-8 47 -19 146q6 31 9 92q-8 29 -17 86q-1 9 0 20q0 28 3 69q5 58 5 83q-33 2 -100 4h-7q-22 0 -56 10q-13 13 -15 33z" />
<glyph unicode="m" horiz-adv-x="1288" d="M-45 915q10 16 41 21q20 0 61 2q-6 0 17 0q16 0 30 -4q12 -6 37.5 -6t63.5 6q16 -78 22 -193l9 15q35 63 73 88q65 43 143 43h7q68 -2 121 -37q66 -43 110 -137v-2q27 37 54.5 75.5t60.5 59.5q60 34 131 33h22q70 -6 123.5 -52.5t89.5 -138.5q12 -31 29 -94 q-5 -25 -4 -65v-29q6 -29 6 -60q0 -35 -8 -88q-12 -74 -14 -88q-4 -49 -17 -137q4 -2 6 0q4 4 17 12q8 2 20.5 -5t16.5 -9q16 0 41 -8q8 -6 8 -41t-10 -51q-3 -5 -11 -5h-6q-20 6 -22 5q-7 0 -14 -1q-42 0 -97 11q-23 -8 -65 -15q-16 6 -50 17q-16 -6 -41 -2q-12 10 -10 49 v29q4 16 19 16q6 0 8 2q2 4 12 -8q4 -6 12 -6q6 0 16.5 6t14.5 6q10 2 45 -2q-4 16 -4 37q0 25 10 98q0 4 13 240q1 18 0 34q0 117 -37 185q-30 52 -91 52q-7 0 -14 -1q-123 -14 -164 -63q-12 -16 -41 -109q-10 -37 -24 -49q0 -14 5 -45t5 -47q0 -31 -8 -84q-8 -63 -10 -86 q-2 -37 -6 -109q-2 -16 -11 -47q-6 -10 -30 -14q-16 -4 -29 0q-27 10 -29 55q-1 7 0 16q0 28 4 82q2 84 6 254q0 10 1 20q0 121 -48 191q-32 45 -87 46q-12 0 -25 -3q-129 -23 -158 -73q-12 -23 -33 -113q-6 -23 -10 -33q-8 -18 -20 -24q10 -63 24 -193q-4 -25 -6 -76 q8 -25 18 -75q2 -11 2 -33q0 -32 -4 -86q-78 0 -231 8q-31 2 -39 16q-8 17 -8 31q0 25 24 43q8 7 46 7q9 0 20 -1q33 -3 56 -3q12 0 22 1q-4 115 -15 346q-12 57 -26 170q2 51 4 154q-18 0 -53 -5t-49 -5q-3 0 -7 -1q-46 0 -60 28q-8 15 -8 29q0 12 7 23z" />
<glyph unicode="n" d="M-45 805q-7 16 -7 30t7 25q10 16 41 19h61q6 2 17 2q16 0 30 -7q13 -7 42 -6q24 0 59 4q14 -80 18 -194l8 14q37 63 76 86q62 41 138 42q7 0 14 -1q70 -2 125 -46t96 -132q12 -31 33 -94q-2 -15 -2 -39t2 -55q10 -35 10 -76q0 -31 -6 -80q-6 -61 -8 -80q-2 -43 -9 -129 q10 -10 13 -8q4 4 14 12q8 4 20.5 -3t14.5 -9q14 0 39 -6q8 -6 10 -39q0 -37 -8 -53q-2 -6 -17 -5q-18 4 -20 5q-14 -1 -30 -2q-32 0 -70 6q-12 2 -31 -8.5t-29 -10.5q-8 0 -23.5 7.5t-21.5 7.5q-14 -6 -39 -2q-10 8 -12 47q-2 31 4 43q6 0 18 6q2 4 11 -8q6 -4 12 -5 q6 -2 15.5 4.5t16.5 8.5t21 2q-6 16 -6 33q0 27 6 98v242q0 141 -47 217q-29 47 -85 46q-10 0 -21 -1q-123 -18 -160 -72q-10 -14 -35 -111q-6 -23 -10 -30q-8 -18 -23 -27q2 -23 2 -39q2 -25 11.5 -35t9.5 -34q-6 -27 -8 -76q6 -27 14 -76q1 -10 1 -27q0 -34 -5 -94 q-78 2 -232 12q-31 4 -36 21q-8 17 -9 30q0 24 25 42q7 5 34 5q13 0 32 -1q33 -3 56 -3q12 0 21 1q0 74 -4 264q-12 55 -24 170q-1 7 -1 15q0 25 5 61q4 55 4 77q-18 0 -53 -4t-50 -4q-51 0 -65 27z" />
<glyph unicode="o" horiz-adv-x="655" d="M16 487q-2 37 -2 71q0 133 39 208q12 25 62 78q18 25 63 69q47 35 102 35h7q70 0 129 -43q100 -74 147 -219q23 -66 25 -119q10 -152 10 -153q-2 -18 -12 -78q-2 -4 -2 -14q-8 -27 -54 -103q-51 -88 -100 -124t-102 -38h-9q-107 0 -190 101q-101 124 -113 329zM106 492 q0 -141 103 -261q61 -72 115 -75q4 0 7 -1q47 0 91 46q33 35 57 125q8 33 23 98q2 7 2 23.5t-2 41.5q-2 51 -6 66q-8 33 -27 100q-29 92 -86 144q-43 39 -88 39h-4q-74 -2 -129.5 -99t-55.5 -247z" />
<glyph unicode="p" horiz-adv-x="718" d="M-107 -333q0 36 15 52q6 8 22 2q27 -6 31 -6q39 0 86 -4v25q6 63 12 194q12 160 35 484q-6 78 -6 233q2 35 16 129q11 70 11 115v14q-76 0 -101 2q-41 6 -55 23q-16 18 -16 35q0 16 14 30q12 14 51 15q12 0 38 -3t38 -3h12q33 -8 105 -21q2 8 4 -100v-6q12 10 43 38 q23 23 71 62q37 22 80 22q12 0 25 -2q66 -8 117 -59q84 -84 112 -231q9 -52 10 -95q0 -14 -1 -26q-2 -63 -9 -150q-4 -14 -20 -74q-2 -4 -4 -14q-8 -23 -62 -94q-57 -80 -108 -109q-45 -25 -90 -25l-13 1q-102 10 -170 119q-12 -66 -12 -74q0 -12 4 -48t4 -55 q-10 -78 -28 -231q-2 -43 -13 -127q41 10 52 10q23 -8 65 -18q20 4 57 0q16 -11 17 -39q0 -17 -6 -41q-4 -14 -13 -16q-8 2 -20 0q-2 0 -11 6q-11 8 -22 8q-6 2 -20.5 -3t-20.5 -7q-6 0 -72 4q-43 -4 -92 -8q-6 4 -20 12q-10 -6 -33 -12q-14 6 -43 16q-18 0 -55 10 q-11 4 -11 40zM205 573q-1 -17 -1 -32q0 -121 66 -230q49 -78 99 -88q9 -2 19 -2q36 0 73 31q33 31 65 115q10 31 33 92q6 14 8 63q1 23 1 38t-1 24q-4 35 -12 100q-16 94 -63 152q-35 43 -80 47h-9q-61 0 -116 -76q-70 -97 -82 -234z" />
<glyph unicode="q" horiz-adv-x="737" d="M-4 645q-1 10 -1 22q0 45 13 103q33 150 123 231q59 55 127 62q13 2 27 1q107 0 190 -103q0 66 -6 114q111 14 170 15q82 0 107.5 -21.5t5.5 -52.5q-8 -16 -39 -21q-20 -2 -62 -4q4 -2 -10 -2h-20l-62 6q0 -20 16 -153q12 -90 19 -244q6 -182 13 -240.5t22 -173.5 q-6 -35 -6 -100q8 -35 18 -100q-2 -74 -2 -217q37 2 113 6h13q39 0 50 -11q20 -20 20 -36q0 -13 -12 -23q-29 -27 -123 -35q-49 -4 -155 -10q-8 111 -21 332q-2 94 -6 286q-76 -113 -188 -120q-6 0 -13 -1q-61 0 -116 35q-117 72 -170 220q-19 49 -35 235zM82 604 q-4 -4 14 -55q8 -35 27 -103q2 -4 6 -10l6 -16q4 -23 19 -64q23 -45 70 -75q38 -24 76 -25q10 0 19 2q70 10 120 99t55 212q-6 49 -17 148q-8 33 -20.5 56.5t-36.5 68.5q-14 33 -53 86q-23 21 -76 21q-9 0 -19 -1q-49 -2 -90 -45q-72 -70 -90 -244q0 -18 -10 -55z" />
<glyph unicode="r" horiz-adv-x="702" d="M-80 823q0 27 14 39q23 18 109 27q59 6 143 20q10 -57 23 -172q45 111 129 172q53 37 119 43q6 0 11 1q22 0 36 -7q18 -14 57 -41q20 -12 53 -43q31 -49 31 -174q-2 -55 -2 -67q-4 -37 -18 -62q-8 -14 -37 -12q-14 0 -27 4q-27 14 -24 53q2 10 6 47q4 29 2 47 q-2 80 -43 123q-18 20 -53 25q-7 1 -14 1q-50 0 -87 -54q-10 -16 -29 -78q-16 -37 -45 -115q-11 -32 -11 -79q0 -13 1 -27q2 -49 2 -48q12 -45 17 -135q4 -72 19 -135t13 -84q16 8 27 10h72q6 0 26.5 9.5t30.5 5.5q33 -12 33 -74q-2 -16 -10.5 -18t-20.5 -7q-2 -4 -10 -2 q-2 4 -19 9q-10 2 -28 -11q-25 -12 -33 -14q-45 -4 -129 -29q-10 -6 -27 -14q-4 -2 -12 2t-12 4q-6 0 -16.5 -10t-16.5 -10q-14 2 -47 4q-61 -2 -60 -4q-10 2 -19 31.5t-5 45.5t17.5 18.5t43.5 4.5q66 16 119 23l-6 36q-2 8 -2 23q6 37 4 57q-16 45 -39 140q-6 68 -29 204 q-12 31 -28 92q2 18 2 58q-8 12 -21 41q-6 23 -6 67q-7 1 -22 2q-30 0 -92 -6q-35 -4 -46.5 7t-13.5 36z" />
<glyph unicode="s" horiz-adv-x="602" d="M-4 242q2 41 35 49q16 4 27.5 -1t25.5 -40q8 -31 25 -94q25 -82 81 -101q16 -4 37 -6q14 -1 27 -1q65 0 101 27q44 32 53 101q1 10 1 20q0 78 -71 144q-33 31 -123 90q-82 53 -119 92q-64 67 -63 158q0 17 2 35q10 104 101 180q84 70 178 70h16q76 -6 143.5 -59.5 t71.5 -125.5v-14q0 -33 -8 -41q-18 -23 -45 -14q-18 4 -37 49q-10 25 -37 63l-8 8q-47 43 -88 50q-7 1 -15 1q-34 0 -69 -24q-84 -59 -95 -153q-1 -10 -1 -21q0 -73 65 -131q33 -31 115 -86q76 -53 112 -88q84 -84 84 -180q0 -55 -31.5 -123t-72.5 -101q-50 -38 -131 -38 q-31 0 -66 6q-80 14 -131 61q-90 84 -90 225v13z" />
<glyph unicode="t" horiz-adv-x="563" d="M-25 942q10 53 37 53q-10 0 56 -18q49 -14 106 -35q23 53 64 162q31 82 47 123q8 18 30 47q6 5 21 4h10q16 0 25.5 -9.5t9.5 -39.5q0 -26 -14 -70q-23 -55 -64 -166l-24 -86q23 0 65 -8q25 -14 74 -39q29 -2 69 -22q10 -14 10 -30q0 -25 -24 -52q-8 -10 -22 -4 q-8 0 -33 18q-12 12 -39 14q-41 2 -43 3t-84 30q-63 -217 -90 -364q-16 -87 -16 -152q0 -51 10 -88q14 -49 20 -66q16 -35 41 -47q29 -12 53 -11q26 0 45 13q37 27 74 136q8 25 25.5 67.5t40.5 48.5q31 6 46 -11q9 -10 9 -33q0 -15 -4 -36q-8 -20 -21 -65q0 -4 -2 -10 q-14 -39 -69.5 -111t-108.5 -90q-30 -11 -60.5 -11t-62.5 11q-61 25 -90 80q-37 66 -37 194q0 61 17 207q2 51 16 154q14 33 37 102q4 37 16 109l-8 8q-16 -2 -45 0q-14 10 -45 29q-23 6 -63 28q-6 4 -7 16q0 7 2 17z" />
<glyph unicode="u" horiz-adv-x="813" d="M16 815q2 35 13 51q2 4 8 4q4 0 8 -2q18 -6 21 -6q43 -2 100 -16q20 6 61 10l43 -18q14 4 39 -2q10 -10 6 -50q0 -14 -8 -41q-8 0 -18 -4q-2 -2 -9.5 6.5t-13.5 10.5q-6 0 -15 -5t-13 -5q-10 -2 -25 0q2 -16 0 -33q-2 -27 -16 -99q0 -4 -27 -239q-5 -41 -5 -78 q0 -86 28 -143q27 -56 91 -56h9q123 4 166 52q14 14 49 106q8 23 12 31q10 16 25 22q2 23 2 39q-2 51 -2 154q2 12 10 36.5t8 39.5q0 12 -4 37.5t-4 37.5q0 31 18 119q78 -10 230 -39q29 -6 35 -22q5 -13 4 -25q0 -29 -29 -47q-5 -2 -15 -2q-17 0 -49 6q-52 10 -79 12 q-12 -115 -35 -344q4 -57 6 -174q-10 -49 -27 -149q35 0 103 -4q51 -6 61 -35q6 -17 7 -29q0 -28 -31 -37q-10 -2 -25 -2l-61 6h-15q-16 2 -30 11q-25 14 -99 14q-3 33 -2 73q0 53 4 119l-8 -12q-45 -57 -86 -78q-53 -26 -111 -25q-21 0 -42 3q-70 10 -120 60t-81 143 q-10 33 -23 96q8 31 11 94q-2 20 -3 41q0 39 13 96q20 94 20 99q6 41 23 125q-6 8 -25 10q-27 2 -38 4t-36 12q-5 5 -4 25q-1 7 0 16z" />
<glyph unicode="v" horiz-adv-x="587" d="M-4 713q-5 29 -5 48.5t5 31.5q18 33 53 20q16 -6 29 -35q4 -20 18 -61q0 -4 4 -16.5t6 -38.5q0 -51 34 -124t67 -190l57 -196q25 92 37 161q4 33 18 97q10 12 23 41q6 14 8 38q6 59 35 142q25 68 47 137q10 29 28.5 87t45.5 63q6 1 11 0q27 0 34 -17q6 -14 6 -36 q0 -28 -10 -68q-49 -197 -98 -396q-63 -236 -127 -387q0 -6 -7 -12h-10h-8h-33q-18 0 -40 -2l-21 -2q-4 2 -19 43q-18 51 -78 295q-44 127 -110 377z" />
<glyph unicode="w" horiz-adv-x="944" d="M-4 735q-1 9 -1 17q0 49 21 63q8 4 15 4q14 0 26 -15q18 -24 33 -79q6 -33 23 -94q2 -6 4 -17q8 -51 26 -157q12 -70 50 -187q43 -137 55 -184q2 10 114 356q12 55 52 156q4 6 16 4l19 -4h34q6 -6 22.5 -51t39.5 -98q18 -43 35 -113q25 -100 26 -115q14 -31 41 -92 q12 68 43 166q43 139 49 166q14 63 58 221q8 29 34 72q12 10 31 12q18 2 23 -10q5 -14 4 -43q0 -22 -2 -51q-2 -33 -27 -136q-23 -88 -65 -260q-16 -72 -52 -215l-20 -84q-2 -12 -8 -39q-2 -6 -60 -8h-53q-14 33 -51 152l-102 342q-53 -164 -97 -322l-24 -94 q-23 -82 -33 -82l-16 2h-37l-43 4q-6 -2 -15 0q-2 2 -12 51l-12 56l-10 49q-51 184 -140 553q-12 63 -14 104z" />
<glyph unicode="x" horiz-adv-x="610" d="M16 803q18 27 47 26q18 2 31 -18q6 -6 15 -25q6 -10 20 -55q8 -35 39 -72q45 -57 111 -182q10 35 38 105q14 14 37 45q4 20 19 63q25 39 71 115q18 33 56 96q8 16 32 45q8 4 18 5q16 0 36 -14q18 -12 17 -34q0 -16 -9 -37q-18 -31 -55 -96q-74 -131 -205 -395 q27 -35 76 -109q4 -18 16 -53q14 -14 41 -47l49 -117q16 -31 47 -92q16 -37 17 -51q-2 -23 -41 -39q-7 -2 -14 -3q-22 0 -37 26q-19 34 -54 102q-63 106 -143 270q-16 -41 -53 -98q-49 -74 -60 -94q-14 -37 -49 -109q-27 -45 -53 -47q-35 -2 -51 25q-4 6 -4 14q0 19 18 51 q6 12 35 49q25 29 41 78q23 70 112 242q-29 37 -80 116q-20 51 -65 150q-23 31 -59 94q-12 28 -13 47q0 14 6 23z" />
<glyph unicode="y" horiz-adv-x="761" d="M-25 901q0 37 9 53q2 6 16 4q18 -4 20 -4q12 1 26 2q34 0 75 -8q20 8 59 17q14 -6 45 -15q14 4 39 2q10 -10 12 -49q0 -29 -4 -41q-8 0 -20 -6q-2 -4 -10 8q-6 4 -13 4q-6 0 -15 -5t-15 -7t-21 -2q4 -14 4 -33q0 -27 -6 -102q0 -90 -2 -273v-14q0 -134 37 -194 q25 -37 55 -50q16 -6 58 -4q119 4 159 66q12 18 39 110q10 39 25 52q1 25 1 42.5t-1 28.5q-12 47 -29 142q-8 125 -41 370l-8 39q82 12 125 19q18 1 31 1q27 0 39 -5q26 -17 26 -35q0 -8 -6 -17q-20 -33 -96 -47q53 -317 65 -516q5 -90 5 -190t-5 -209q-6 -150 -12 -199 q-16 -111 -59 -182q-33 -57 -95.5 -94t-124.5 -37q-106 0 -178 47q-84 53 -106 151q-9 39 -9 70q0 44 19 70q8 12 31 8q23 -2 31 -14q12 -20 18 -65.5t14 -61.5q4 -8 12.5 -27.5t32.5 -56.5q35 -33 95 -34q17 0 36 3q47 6 82 37q43 37 72 112q53 135 53 340q0 9 1 19 q0 40 -7 98q-49 -80 -94 -108q-57 -36 -126 -36q-10 0 -22 1q-102 6 -165 92q-35 47 -64 123q-10 29 -25 84q0 12 4.5 35.5t4.5 35.5q0 16 -7.5 50t-5.5 53q6 63 19 192q2 35 8 105q-14 10 -14 8q-4 -4 -15 -12q-6 -2 -18 5t-16 7q-14 2 -39 8q-9 6 -9 39z" />
<glyph unicode="z" horiz-adv-x="626" d="M-66 -45q111 170 318 518q14 31 47 92q37 43 88 127q6 18 23 56q0 2 18 30q-39 0 -117 -2q-25 0 -110 -8q-109 -9 -148 -9q-13 0 -18 1q-14 2 -27.5 17.5t-13.5 29.5q0 37 106 53q49 8 146 14q59 6 405 46q-115 -172 -336 -525q-33 -66 -102 -196q-25 -49 -102 -158 q111 -23 262 -33q74 -4 112.5 -15t53.5 -30q23 -33 -7 -55q-16 -11 -54 -11q-6 0 -13 1q-33 6 -98 12q-2 0 -7 -2q-39 10 -118 26q-57 10 -154 13q-127 6 -154 8z" />
<glyph unicode="{" horiz-adv-x="651" d="M16 580q66 63 207 223q-12 111 5.5 226.5t56.5 164.5q63 80 198 80q70 2 95 -31q23 -31 -7 -55q-14 -12 -51 -12q-25 2 -74 -5q4 0 -10 -2q-35 -6 -88 -30q-27 -31 -26 -142q2 -137 12 -211l2 -20q-63 -59 -189 -184q51 -47 85 -72t100 -90l16 -14q-12 -90 -12 -82 q2 -18 7 -60.5t5 -62.5q0 -141 14 -172q23 -51 138 -58q25 0 69 -8q10 -6 19.5 -23.5t5.5 -29.5q-4 -14 -34 -26.5t-85 -10.5q-147 6 -203 111q-31 59 -39 188q-6 84 5 193z" />
<glyph unicode="|" horiz-adv-x="196" d="M16 27q4 39 7 114q0 152 12 398q4 41 -4 117.5t-8 111.5q8 61 18 180q-4 41 -4 121q4 55 30.5 69.5t53.5 0.5q16 -10 16 -43v-25q2 -4 -10 -61q-4 -20 -6 -45q0 -16 4 -45q10 -70 6 -175q-4 -186 -4 -176q0 -23 6 -75t6 -80q-6 -18 -12 -58q-2 -12 4 -34.5t8 -32.5 q2 -27 -6 -68q-8 -57 -9 -66.5t-7 -99.5q0 -23 -8 -67q-10 -27 -56 -21q-35 7 -37 60z" />
<glyph unicode="}" horiz-adv-x="651" d="M16 -90q-4 12 5.5 29.5t19.5 22.5t70 9q115 6 137 58q14 31 14 172q0 20 6 62t6 61q0 -8 -12 82l17 14q18 25 104 92q29 23 82 70q-18 18 -191 184l2 20q10 74 13 211q2 111 -27 142q-16 16 -88 30q-12 2 -10 2q-8 2 -74 5q-37 0 -51 12q-29 25 -6 55q25 33 94 31 q135 0 199 -80q39 -49 56 -165t5 -226q68 -76 207 -223l-221 -215q10 -109 4 -193q-8 -129 -39 -188q-55 -104 -203 -111q-55 -2 -84 10q-17 7 -35 27z" />
<glyph unicode="~" horiz-adv-x="677" d="M16 545q0 2 31 33q4 4 12 10q14 0 39 6q14 10 43 27q23 14 60 12q35 -2 96 -43t94 -43q6 0 16.5 -9.5t16.5 -5.5q10 8 35.5 10.5t34.5 6.5q20 16 65 39q8 2 35 -15l10 -6l8 -8q20 -18 9 -41q-14 -20 -43 -39q-18 -10 -58 -30q-51 -25 -102 -21t-96 33q-23 23 -74 57 q-18 0 -53 6q-41 8 -54 2q-4 -2 -32 -26q-18 -14 -35 -13q-58 11 -58 58z" />
<glyph unicode="&#xa1;" horiz-adv-x="241" d="M16 -35q0 8 1 24.5t12 55.5q6 16 6 37q0 14 -2 39q-8 57 -4 145l8 148q-4 45 -8 131q6 16 14 49q2 10 -4 29.5t-6 27.5q-2 23 6 58q10 47 10 57q2 35 4 74t14.5 62.5t57.5 17.5q33 -6 35 -43q0 -20 -5 -55.5t-5 -49.5q-2 -127 -21 -334q-2 -35 4 -99.5t4 -94.5 q-8 -49 -20 -150q2 -35 2 -102q-6 -47 -31 -58q-29 -12 -55 3q-15 8 -17 28zM35 1110q8 16 31 45q14 10 40 0q78 -31 78 -68q-4 -27 -29.5 -47t-52.5 -20q-33 0 -42 14.5t-23 39t-2 36.5z" />
<glyph unicode="&#xa2;" horiz-adv-x="673" d="M16 571q4 156 43 248q23 53 76 95t115 51q-8 74 -8 86q2 55 27.5 71.5t54.5 1.5q16 -10 18 -41v-24q6 -6 0 -45q-2 -6 -5 -18.5t-5 -32.5q133 -20 198 -107q33 -41 50 -90q10 -39 4 -59q-14 -37 -52 -31q-18 2 -34 31q-8 25 -33 69l-6 6q-16 29 -49 68q-25 20 -68 24 q8 -63 10 -159q2 -141 2 -158q10 -51 21 -156q0 -10 -5 -29.5t-5 -27.5q-2 -12 6 -34.5t8 -33.5q4 -25 0 -57q78 8 115 57q8 10 28 70q16 45 41 55q16 6 27 5q41 -18 26 -89q-16 -92 -82.5 -143t-162.5 -63q-2 -23 -2 -68q2 -25 -4 -68q-10 -29 -56 -24q-37 4 -41 59 q2 35 4 105q-109 23 -176 121q-84 124 -80 335zM106 584q-4 -115 56 -236q8 -31 37 -80q14 -12 61 -28l6 -4q-2 117 0 286q0 41 -11 117t-13 113q0 29 6 108q-43 -18 -72 -57q-64 -88 -70 -219z" />
<glyph unicode="&#xa3;" horiz-adv-x="800" d="M16 229l15 64q8 37 90 334q-47 -6 -58 2q-33 29 -8 82q4 10 17 12q8 -4 18 -2q2 2 18.5 -7t30.5 -5h4q39 145 58 196q35 100 90 187q66 102 133 131q41 14 86 14q61 0 106 -27q68 -43 103 -123q29 -66 16 -100q-10 -29 -43 -22q-20 2 -43 45q-14 27 -45 75l-14 15l-29 35 q-16 18 -49 20q-31 4 -55 -10q-35 -18 -80 -107q-74 -141 -133 -319q35 -2 49 -2t44 7t36 7q8 -4 26 -12q12 8 39 14q18 -6 51 -14q23 0 66 -8q12 -6 16 -33q4 -55 -18 -64q-20 2 -59 4q-78 -2 -177 9q-33 -8 -102 -17h-4q-20 -72 -39 -147q-8 -49 -22 -144q33 -10 88 -8 q66 2 90 -2l307 -49q4 39 16 117q2 20 21 55q37 29 55 4q23 -31 16 -114q-4 -55 -20 -172z" />
<glyph unicode="&#xa4;" horiz-adv-x="843" d="M16 408q0 41 9.5 42t21.5 5q2 2 16 -9q8 -4 17 -6q8 0 24.5 7.5t24.5 7.5q-8 68 -8 131q-16 4 -27 6q-20 -6 -59 -2q-31 16 -17 78q4 16 15 18q8 -2 20 0q0 2 17 -8q8 -6 18 -6q6 0 35 8q4 88 16 172q23 154 113 244q66 66 147 73q100 8 189 -45q82 -51 131 -153 q39 -78 39 -125q0 -18 -5 -33.5t-20.5 -27t-30.5 -7.5q-18 6 -31.5 42t-39.5 104q-4 4 -8 12q-12 31 -43 84q-31 39 -72 52t-96 3q-49 -10 -90 -63q-49 -59 -78 -162q-23 -80 -31 -166q12 -2 23 -2q14 0 41.5 7t31.5 7q8 -4 23 -12q12 8 37 14q14 -6 47 -14q20 0 59 -8 q10 -4 12 -31q4 -55 -16 -63q-16 2 -53 4q-84 -4 -146 4q-35 4 -51 2q-4 -2 -10 -4q2 -76 16 -135q6 0 24.5 6t20.5 6q6 -4 21 -10q10 6 33 12q12 -6 39 -14q18 0 53 -9q10 -4 12 -38q0 -35 -12 -54q-4 -8 -23 -4q-25 6 -26 6q-51 -4 -117 4l14 -43q10 -41 41 -116 q6 -12 41 -39q76 -63 141 -64q59 -2 105.5 27t73.5 86q16 37 26 92q12 68 41 82q14 8 27 2q14 -6 22 -37q10 -37 2 -88q-18 -131 -120 -209q-72 -53 -168 -63q-78 -6 -145.5 27.5t-119.5 109.5q-61 88 -90 219q-18 8 -59 16q-18 -6 -51 -2q-17 11 -17 50z" />
<glyph unicode="&#xa5;" horiz-adv-x="970" d="M16 1044q0 45 13 46q4 0 14 4q0 2 12 -9q6 -6 13 -6q6 0 17 6.5t15 6.5q4 2 58 0q33 6 69 14q4 -6 17 -12q8 8 26 14q10 -6 33 -14q14 0 43 -9q8 -4 10 -38q0 -35 -10 -54q-4 -6 -18 -4q-20 6 -23 4q-31 -2 -67 2q8 -18 26 -51q4 -4 6 -10q6 -12 9 -31q2 -37 36 -84 q41 -53 84 -145q63 -139 70 -152q16 51 55 148q12 10 29 37q4 23 16 67q4 6 49 78q27 39 62 115q-16 6 -49 14q-16 -6 -43 -2q-12 10 -13 49q-2 43 11 45q6 -2 14 2q2 2 14 -8q6 -4 13 -4q6 -2 17 4t15 8q4 0 56 -2q35 8 71 14q4 -4 17 -12q8 8 24 15q12 -6 35 -13 q14 -2 43 -8q8 -6 8 -41q2 -35 -8 -51q-4 -8 -18 -4q-20 4 -23 4q-41 -2 -88 2q8 -29 -22 -92q-68 -139 -203 -416q12 6 39 12q14 -6 47 -14q23 0 63 -8q12 -4 15 -31q4 -55 -19 -63q-18 2 -55 4q-78 -4 -139 4l-4 -8q4 -8 12 -27q2 -12 0 -43q14 4 16 4l25 -12q12 8 39 14 q14 -6 47 -14q23 0 63 -8q12 -4 15 -33q4 -55 -19 -64q-18 2 -55 4q-72 -2 -127 5l-2 -3q8 -10 14 -28q-6 -10 -14 -35q0 -12 -4 -37l2 2h4l18 -12q10 8 31 14q12 -6 37 -14q16 -2 49 -10q10 -4 10 -39t-10 -54q-6 -6 -22 -4q-23 6 -25 7q-57 -2 -131 8q-27 -8 -78 -15 q-18 6 -57 17q-18 -6 -51 -2q-12 10 -13 49q0 41 9.5 42t21.5 5q0 2 14 -8q6 -6 15 -6q6 0 19.5 6t17.5 6q14 4 43 0q0 14 2 41q-2 31 0 67q-27 -10 -39 -10q-25 8 -76 17q-27 -6 -70 2q-31 29 -8 82q4 10 17 12q6 -4 16 -2q2 2 20 -8q8 -4 19 -7q10 0 30.5 7.5t30.5 7.5 q16 2 52 -2q-4 14 -5 24q0 10 6.5 27.5t8.5 28.5v4q-31 -10 -41 -11q-25 6 -76 15q-27 -6 -70 2q-31 29 -8 82q4 12 17 12q6 -4 16 -2q2 4 20 -6q8 -6 19 -6q10 0 30.5 6t30.5 8h25q-12 18 -109 244q-41 66 -102 205q-8 23 -23 67q-12 -6 -20 -6q-18 8 -53 16q-14 -6 -43 -2 q-13 8 -13 47z" />
<glyph unicode="&#xa6;" horiz-adv-x="208" d="M16 274q6 23 17 68q-6 20 -2 57q16 29 80 15q14 -4 16 -13q-2 -8 0 -20q2 0 -8 -16q-6 -8 -6 -17q0 -8 7 -26.5t7 -28.5q0 -16 -2 -45t-2 -39q0 -14 7 -41t7 -31q-6 -6 -12 -20q6 -12 12 -35q-4 -14 -12 -45q-2 -18 -10 -55q-4 -10 -31 -13q-33 -2 -48.5 4.5t-17.5 18.5 q4 14 7 43q-4 80 6 139q4 31 0 49q0 6 -7.5 23.5t-7.5 27.5zM31 1008q6 20 14 65q-6 20 -2 55q18 29 80 15q14 -4 18 -13q-4 -8 -2 -18q2 -2 -5 -13.5t-7 -21.5q0 -6 5 -20.5t7 -18.5q0 -6 -2 -73q6 -41 13 -91q-4 -6 -13 -20q8 -10 15 -33q-6 -14 -15 -43q0 -18 -8 -55 q-4 -8 -33 -10q-41 -4 -59 10q-8 6 -4 25q6 25 4 28q-2 63 8 146q-8 29 -14 86z" />
<glyph unicode="&#xa7;" horiz-adv-x="661" d="M16 975q-8 70 2 102q12 45 72 117q16 18 51 53q63 45 160 43q86 0 150 -45q72 -51 104 -153q18 -57 18 -117q2 -31 -5 -45.5t-27 -20.5q-16 -4 -29 0q-23 12 -35 72q-6 35 -26 104q-23 51 -52 72q-37 25 -92 23q-98 -8 -144 -56.5t-44 -144.5q2 -111 84 -164 q43 -29 141 -59.5t141 -59.5q63 -41 91 -96t28 -119q-2 -88 -39 -164q-41 -84 -112 -120q70 -39 110 -111q31 -55 41 -133q10 -94 -20 -148q-14 -29 -58 -75q-20 -23 -65 -60q-61 -35 -142 -35q-86 2 -149 48q-72 51 -104 153q-18 57 -21 117q0 31 7 45t28 20q16 4 26 -2 q25 -10 37 -69q6 -35 27 -105q20 -53 51 -71q37 -27 92 -23q98 6 144.5 55.5t44.5 145.5q-2 111 -80 162q-43 27 -143.5 58.5t-143.5 59.5q-63 43 -92 101q-27 51 -25 116q0 211 150 283q-74 45 -111 113q-33 55 -41 133zM111 451q12 -78 75 -123q39 -27 107 -58h51 q27 0 43 9q4 0 10 4q61 25 82 51q39 53 29 143q-8 76 -74 123q-41 29 -115 59q-33 0 -96 -14l-4 -2l-4 -2q-57 -25 -76 -49q-40 -59 -28 -141z" />
<glyph unicode="&#xa8;" horiz-adv-x="393" d="M16 1501q4 27 31 48.5t53 21.5q35 0 50 -15q6 -16 21 -41.5t1 -35.5q-10 -18 -33 -47q-14 -12 -41 -2q-82 32 -82 71zM221 1501q4 27 31 48.5t53 21.5q35 0 49 -15q6 -16 21.5 -41.5t1.5 -35.5q-10 -18 -33 -47q-14 -12 -41 -2q-82 32 -82 71z" />
<glyph unicode="&#xa9;" horiz-adv-x="1044" d="M16 655q0 193 86 324q33 51 123 113q35 27 109 69q70 29 135 29q139 -2 266 -94q119 -86 183 -219q41 -84 53 -164q10 -61 16 -181q2 -57 -31 -161q-2 -4 -4 -15q-23 -59 -98 -143q-143 -162 -317 -170q-172 -10 -320 123q-201 184 -201 489zM109 602q6 -150 92 -264 q139 -186 334 -195q111 -4 194 62q59 47 109 143q29 57 55 168q4 20 6 74q0 53 -4 65q-23 72 -90 222q-59 94 -147.5 146t-186.5 50q-150 -2 -248 -119q-124 -147 -114 -352zM315 682q0 57 4 78q4 45 21 76q51 88 133 92q111 8 174 -86q31 -47 31 -84q0 -10 -2 -21 q-8 -31 -53 -30q-20 0 -27.5 14t-22.5 49q-2 4 -6 13.5t-10 29.5q-12 20 -31 25q-14 4 -41 -4q-49 -16 -71 -113q-10 -45 -11 -90q0 -78 29 -137q2 -25 17 -64q4 -4 34 -18q10 -8 35 -19q45 -4 68 29q6 27 26 74q6 8 31 14q18 6 29 4q29 -6 28 -47q2 -70 -50 -122t-122 -60 q-47 -4 -94 23.5t-72 68.5q-53 88 -47 305z" />
<glyph unicode="&#xaa;" horiz-adv-x="641" d="M32 747v15q0 98 52 147q27 14 77 47q27 23 82 57q63 18 125 39q78 29 105 72q-2 123 -64 195q-43 47 -112 47q-57 0 -80 -50q-8 -35 -27 -104q-10 -37 -41 -45q-25 -6 -39 10q-13 14 -12 54v12l6 49q2 4 2 12q6 27 41 68q72 90 180 90q104 0 162 -70q61 -78 74 -237 q6 -8 6 -37t-4 -37q8 -170 8 -166q0 -14 -8 -45t-8 -49q0 -10 6 -53q4 -35 2 -56l-25 -172l60 -8q29 0 80 -20q12 -10 14 -33q0 -23 -12 -33q-19 -15 -65 -15q-18 0 -40 3q-47 8 -145 20l4 58q4 31 8 96q-72 -74 -178 -74h-6q-104 0 -170 68q-54 57 -58 145zM124 737 q0 -44 33 -70q29 -20 103 -24q9 0 18 -1q96 0 127 42q16 37 49 108l15 197q-84 -35 -244 -113q-101 -56 -101 -139zM67 326q4 10 17 10q8 -2 18 0q2 2 18.5 -7.5t30.5 -4.5q18 6 56 12q16 2 50 -1t48 -3t44 7t38 7q8 -6 24 -12q12 8 41 14q16 -6 52 -14q23 0 65 -8 q12 -6 14 -33q4 -55 -18 -64q-20 2 -59 4q-76 -2 -176 9q-33 -8 -101 -17q-27 6 -80 17q-27 -6 -71 2q-36 29 -11 82z" />
<glyph unicode="&#xab;" horiz-adv-x="700" d="M16 492q29 51 93 147q41 43 116 129q4 4 43 63q25 39 51 56q16 10 31 6q18 -2 34.5 -18.5t12.5 -32.5l-30 -43q-2 -4 -8.5 -10.5t-20.5 -16.5q-27 -18 -45 -57q-25 -49 -78 -115q-82 -102 -86 -111q31 -31 88 -98q4 -18 19 -47q14 -10 40 -33q4 -6 43 -78q6 -12 50 -79 q27 -41 26 -54q0 -37 -43 -47q-23 -4 -41 10.5t-39 49.5q-27 47 -32 57q-62 80 -224 322zM262 492q29 51 92 147q41 43 117 129q4 4 43 63q25 39 51 56q16 10 31 6q18 -2 34.5 -18.5t12.5 -32.5l-31 -43q-2 -4 -8 -10.5t-20 -16.5q-27 -18 -45 -57q-25 -49 -78 -115 q-82 -102 -86 -111q31 -31 88 -98q4 -18 18 -47q14 -10 41 -33q4 -6 43 -78q6 -12 49 -79q27 -41 27 -54q0 -37 -43 -47q-23 -4 -41 10.5t-39 49.5q-27 47 -33 57q-61 80 -223 322z" />
<glyph unicode="&#xac;" horiz-adv-x="1048" d="M8 643q-4 23 8 35q23 25 72 24q41 -4 80 -8q25 -2 201 -6q139 -10 419 -22q68 4 203 10q-14 -94 -33 -279q0 -49 -4 -147q-4 -29 -24 -80q-20 -25 -58 -12q-18 8 -22 32q2 20 4 62q0 2 -2 6q10 31 22 94q0 8 -6 78q-2 49 6 139q-190 10 -262 9q-10 0 -65 -7q-39 -4 -64 0 q-59 12 -57 13q-10 0 -47 -6q-29 -6 -45 -5q-51 8 -154 19q-31 2 -92 8q-23 0 -63 10q-15 10 -17 33z" />
<glyph unicode="&#xad;" horiz-adv-x="589" d="M16 537q4 10 17 10q8 -2 18 0q2 2 18.5 -7.5t30.5 -4.5q18 6 56 12q16 2 50 -1t48 -3t44 7t38 7q8 -6 24 -12q12 8 41 14q16 -6 52 -14q23 0 65 -8q12 -6 14 -33q4 -55 -18 -64q-20 2 -59 4q-76 -2 -176 9q-33 -8 -101 -17q-27 6 -80 17q-27 -6 -71 2q-36 29 -11 82z" />
<glyph unicode="&#x2212;" horiz-adv-x="589" d="M16 537q4 10 17 10q8 -2 18 0q2 2 18.5 -7.5t30.5 -4.5q18 6 56 12q16 2 50 -1t48 -3t44 7t38 7q8 -6 24 -12q12 8 41 14q16 -6 52 -14q23 0 65 -8q12 -6 14 -33q4 -55 -18 -64q-20 2 -59 4q-76 -2 -176 9q-33 -8 -101 -17q-27 6 -80 17q-27 -6 -71 2q-36 29 -11 82z" />
<glyph unicode="&#xae;" horiz-adv-x="1044" d="M16 666q0 193 86 325q33 49 123 111q35 27 111 69q68 29 135 29q139 0 266 -94q119 -86 183 -219q41 -84 53 -164q10 -61 14 -180q4 -57 -31 -162q0 -4 -4 -12q-23 -61 -98 -146q-143 -162 -315 -170q-174 -8 -320 125q-203 185 -203 488zM109 614q8 -152 92 -264 q141 -188 336 -196q109 -4 194 61q59 47 107 143q31 59 55 168q8 33 4 105q-2 27 -20 88q-33 104 -72 168q-57 96 -146.5 148t-185.5 50q-150 -4 -250 -120q-124 -148 -114 -351zM283 850q4 16 16 27.5t76 15.5q31 2 88 12q6 -31 12 -74q57 78 131 87q18 4 33 -3 q12 -12 39 -32q41 -20 50 -41t5 -101v-43q-4 -25 -13 -35t-38 -6h-12l-13 5q-27 8 -28 24q4 20 6 59q-4 57 -37 68q-18 4 -29.5 -9t-19.5 -59q-12 -25 -33 -71q-4 -10 0 -60q10 -27 10 -69v-70q6 -18 17 -53q12 -4 37 -8q4 2 15 7t17 3q10 -8 17.5 -44t3.5 -48q-6 0 -12 -4 q-2 -6 -13 4q-4 4 -10 4q-8 -8 -29 -21q-27 0 -73 -16q-4 -6 -13 -12q-6 6 -16 8q-4 -6 -10 -16q-6 -2 -17.5 3t-15.5 5q-12 -2 -35 2q-6 2 -14 36.5t-4 53.5q2 6 16 6q18 0 16 -2q16 6 41 8v4q4 8 7 41q-6 16 -21 49q-8 25 -14 84.5t-17 87.5q-6 8 -14 25q4 16 4 43 q-6 4 -12 13.5t-4 43.5q-10 6 -35 3t-35 1.5t-16 31t-4 32.5z" />
<glyph unicode="&#xaf;" horiz-adv-x="589" d="M16 1520q4 10 17 10q8 -2 18 0q2 2 18.5 -7.5t30.5 -4.5q18 6 56 12q16 2 50 -1t48 -3t44 7t38 7q8 -6 24 -12q12 8 41 14q16 -6 52 -14q23 0 65 -8q12 -6 14 -33q4 -55 -18 -64q-20 2 -59 4q-76 -2 -176 9q-33 -8 -101 -17q-27 6 -80 17q-27 -6 -71 2q-36 29 -11 82z " />
<glyph unicode="&#x2c9;" horiz-adv-x="589" d="M16 1520q4 10 17 10q8 -2 18 0q2 2 18.5 -7.5t30.5 -4.5q18 6 56 12q16 2 50 -1t48 -3t44 7t38 7q8 -6 24 -12q12 8 41 14q16 -6 52 -14q23 0 65 -8q12 -6 14 -33q4 -55 -18 -64q-20 2 -59 4q-76 -2 -176 9q-33 -8 -101 -17q-27 6 -80 17q-27 -6 -71 2q-36 29 -11 82z " />
<glyph unicode="&#xb0;" horiz-adv-x="333" d="M16 1049q-8 74 13 106l43 37q35 33 63 33q29 -12 51 -27q55 -31 70 -59q23 -41 16 -62q0 -12 4 -26q4 -8 -2 -54l-2 -4q-2 -10 -26 -35q-49 -53 -84 -59q-53 0 -86 29q-50 43 -60 121zM92 1055q2 -51 64 -70q18 -4 28 10q25 35 25 43q0 16 -8 31.5t-23 42.5 q-14 18 -39 16q-20 0 -34.5 -24t-12.5 -49z" />
<glyph unicode="&#xb1;" horiz-adv-x="548" d="M32 494q-6 55 17 63q20 -2 59 -2q61 4 135 0l-2 4v4q4 8 13 27q-8 12 -15 39q6 16 15 51q0 23 8 65q4 12 33 15q55 6 63 -19q-2 -18 -4 -57q2 -53 -4 -119q20 6 35 6q14 0 40.5 -6t39.5 -6q27 6 71 0q35 -27 12 -82q-4 -12 -16 -12q-8 2 -18 0q0 -2 -17.5 7t-31.5 5 q-18 -6 -54 -14q-18 -2 -59 0q10 -43 10 -57q-8 -27 -16 -80q6 -27 -2 -72q-29 -33 -82 -8q-10 4 -13 16q4 6 3 19q-2 0 7 16t5 33q-6 16 -12 53q-2 16 2 72q-20 -8 -23 -9q-8 4 -27 13q-12 -8 -38 -17q-16 6 -52 13q-23 0 -65 8q-13 4 -17 31zM36 107q4 10 17 10q8 -2 18 0 q2 2 18.5 -7.5t30.5 -4.5q18 6 56 12q16 2 50 -1t48 -3t44 7t38 7q8 -6 24 -12q12 8 41 14q16 -6 52 -14q23 0 65 -8q12 -6 14 -33q4 -55 -18 -64q-20 2 -59 4q-76 -2 -176 9q-33 -8 -101 -17q-27 6 -80 17q-27 -6 -71 2q-36 29 -11 82z" />
<glyph unicode="&#xb2;" horiz-adv-x="448" d="M16 489l58 76q84 106 157 234q70 121 64 168q-14 109 -92 114q-59 4 -78 -37q-6 -14 -14 -81q-4 -49 -29 -60q-37 -16 -53 27q-10 31 -4 84v4q0 35 36 80q51 68 144 67q74 2 124 -51t54 -141q2 -59 -57 -189q-10 -25 -35 -71q-16 -20 -45 -62q-12 -25 -45 -76 q45 0 131 -4q14 -2 41 -10q27 -18 18 -43q-12 -35 -139 -31q-72 2 -236 2z" />
<glyph unicode="&#xb3;" horiz-adv-x="458" d="M16 635q0 18 15.5 28.5t34.5 6.5q27 -16 81 -43h3q18 -6 51 -15q47 -4 76.5 23t29.5 72q0 51 -33 81q-55 51 -110 52q-33 0 -76 -2l-4 84q49 0 82 4q16 0 75.5 29.5t59.5 78.5q0 55 -20.5 79t-73.5 24q-35 2 -72 -21q-59 -35 -80 -29q-41 10 -20 48q20 41 76 65 q49 25 98 23q94 -2 145.5 -55.5t44.5 -139.5q-10 -94 -102 -147q104 -53 104 -166q0 -82 -57 -132.5t-145 -52.5q-45 0 -109 29q-74 35 -74 76z" />
<glyph unicode="&#xb4;" horiz-adv-x="331" d="M16 1247q6 18 17 53q2 14 8 46q10 6 27 22q-2 8 -2 25q8 8 20 18q16 18 33.5 61.5t30.5 59.5q10 10 22 21.5t10 27.5q-2 2 -4 8q-2 8 2 11.5t10 15.5q6 6 21 2q61 -14 63 -47q2 -10 -10 -26.5t-16 -22.5q-2 -23 -15 -66q-23 -20 -53 -70q-29 -78 -59 -133q-2 -23 -23 -47 q-23 -4 -59 17q-23 14 -23 24z" />
<glyph unicode="&#xb5;" horiz-adv-x="899" d="M16 799q0 35 11 51q2 6 14 4q18 -4 22 -4q43 2 101 -10q20 8 59 14q14 -6 45 -16q14 6 39 2q10 -10 10 -49q-2 -27 -2 -29q-2 -16 -16 -17q-6 0 -6 -2q-4 -4 -12 9q-4 6 -11 6q-6 0 -15 -5t-13 -8q-10 -2 -25 0q4 -16 2 -34q0 -25 -10 -97q0 -6 -10 -241q-6 -141 37 -219 q31 -57 102 -52q125 14 164 64q12 16 41 108q2 4 20 52q14 37 15 45q-2 23 -8.5 74t-4.5 79q0 10 6.5 36t6.5 40q-6 25 -13 76q-2 31 10 119q78 -4 230 -23q31 -6 37 -22q20 -45 -21 -72q-10 -6 -65 0q-49 6 -78 6q2 -66 -4 -172q-6 -137 -6 -174q8 -57 14 -172 q-6 -49 -14 -152q35 2 102 2q51 -2 64 -28q14 -33 -3 -56q-10 -14 -43 -16q-20 2 -61 2h-16q-4 0 -39 12q-23 8 -90 2q-10 80 -11 195l-8 -14q-39 -59 -80 -82q-70 -41 -153 -35q-98 10 -162 98q0 -12 5 -43t5 -43q-2 -8 -9 -26.5t-5 -28.5q4 -16 12 -47q0 -8 -14 -92 q-4 -14 -10 -97q0 -23 -13 -59q-14 -18 -55 -12q-33 6 -35 43q0 18 4 52t4 48q0 121 19 324q2 33 -4 95t-6 91q8 49 20 145q-2 33 -2 99q4 39 22 51q4 49 17 145q-10 10 -12 9q-4 -4 -15 -13q-6 -2 -18 5.5t-17 9.5q-14 0 -36 8q-9 6 -9 41z" />
<glyph unicode="&#x3bc;" horiz-adv-x="899" d="M16 799q0 35 11 51q2 6 14 4q18 -4 22 -4q43 2 101 -10q20 8 59 14q14 -6 45 -16q14 6 39 2q10 -10 10 -49q-2 -27 -2 -29q-2 -16 -16 -17q-6 0 -6 -2q-4 -4 -12 9q-4 6 -11 6q-6 0 -15 -5t-13 -8q-10 -2 -25 0q4 -16 2 -34q0 -25 -10 -97q0 -6 -10 -241q-6 -141 37 -219 q31 -57 102 -52q125 14 164 64q12 16 41 108q2 4 20 52q14 37 15 45q-2 23 -8.5 74t-4.5 79q0 10 6.5 36t6.5 40q-6 25 -13 76q-2 31 10 119q78 -4 230 -23q31 -6 37 -22q20 -45 -21 -72q-10 -6 -65 0q-49 6 -78 6q2 -66 -4 -172q-6 -137 -6 -174q8 -57 14 -172 q-6 -49 -14 -152q35 2 102 2q51 -2 64 -28q14 -33 -3 -56q-10 -14 -43 -16q-20 2 -61 2h-16q-4 0 -39 12q-23 8 -90 2q-10 80 -11 195l-8 -14q-39 -59 -80 -82q-70 -41 -153 -35q-98 10 -162 98q0 -12 5 -43t5 -43q-2 -8 -9 -26.5t-5 -28.5q4 -16 12 -47q0 -8 -14 -92 q-4 -14 -10 -97q0 -23 -13 -59q-14 -18 -55 -12q-33 6 -35 43q0 18 4 52t4 48q0 121 19 324q2 33 -4 95t-6 91q8 49 20 145q-2 33 -2 99q4 39 22 51q4 49 17 145q-10 10 -12 9q-4 -4 -15 -13q-6 -2 -18 5.5t-17 9.5q-14 0 -36 8q-9 6 -9 41z" />
<glyph unicode="&#xb6;" horiz-adv-x="1003" d="M16 856q14 172 117 268q109 104 311 95q100 -8 299 -19l123 -6q57 -4 80 -29q12 -10 6 -32q-4 -23 -20.5 -31t-91.5 -6q-23 0 -105 4q14 -27 15 -84q-8 -41 -17 -123q4 -59 2 -180q-14 -78 -33 -232q-8 -248 -22 -401q0 -37 -4 -115q-2 -23 -4 -24q-2 -16 -15 -19 l-34 -10q-29 2 -37 20q-10 27 -8 70q2 33 2 96q-4 47 -2 142q2 8 10 30.5t8 36.5q0 8 -4 27.5t-4 30.5q2 23 18 106q-53 -16 -127 -8l-4 2q2 -43 0 -72q-6 -20 -16 -61q-2 -12 3 -38t5 -34q2 -31 -8 -76q-12 -59 -13.5 -69.5t-11.5 -104.5q0 -27 -12 -73q-12 -29 -57 -19 q-35 8 -33 66q6 41 14 122q4 150 27 373q-72 16 -144 43q-121 45 -172 130t-41 204zM111 854q0 -86 45 -152q78 -109 225 -139q-4 72 -4 217q12 63 29 191q-2 43 2 131v8q-23 6 -35 6q-20 2 -44 -8t-46 -21q-39 -14 -107 -53q-65 -61 -65 -180zM471 563q8 2 23 0q23 0 18 -2 q35 4 104 -4q2 37 25 195q16 127 14 188q0 8 -8 41q-6 20 -2 25q4 6 4 20v25q4 35 10 51q-51 -2 -151 -2q-2 -16 -12 -68q-10 -33 -11 -71q0 -4 2 -25q6 -76 -2 -186q-6 -93 -14 -187z" />
<glyph unicode="&#xb7;" horiz-adv-x="229" d="M16 662q4 27 31 48t53 21q35 0 50 -14q6 -16 21 -42t1 -36q-10 -18 -33 -47q-14 -12 -41 -2q-82 33 -82 72z" />
<glyph unicode="&#x2219;" horiz-adv-x="229" d="M16 662q4 27 31 48t53 21q35 0 50 -14q6 -16 21 -42t1 -36q-10 -18 -33 -47q-14 -12 -41 -2q-82 33 -82 72z" />
<glyph unicode="&#xb8;" horiz-adv-x="571" d="M16 -332q4 16 11 25q18 25 57 12q31 -12 92 -33q94 -18 133 -18q41 0 72 12q45 16 45 74q-2 29 -74 63q-53 25 -90 27q-12 2 -108 -4l18 76q2 29 14 86q16 47 41 53q49 10 64 -25q4 -12 0 -30q-8 -31 -10 -33q2 -2 0 -6q-2 -12 -15 -31q12 2 37 4q57 2 113 -26 q41 -20 69.5 -64.5t28.5 -89.5q0 -123 -84 -172q-14 -8 -41 -8q-35 0 -45 -4q-18 -6 -57 -15q-25 -4 -84 19q-43 12 -127 43q-23 6 -60 32q-6 8 0 33z" />
<glyph unicode="&#xb9;" horiz-adv-x="348" d="M16 598q-2 51 37 51q-4 0 19 -4h43v25l24 -4l-8 -17h10q-8 -6 -16 -6q-10 0 -10 16v5q0 12 5 28.5t5 61.5q-2 39 4 102q8 78 7 103.5t3 80.5q6 27 3 47.5t10 86.5l-29 2q-16 2 -43 16q-10 10 -12 27q0 20 17 33.5t65 9.5q2 0 100 -13q-4 -55 -12 -155q-6 -51 -15 -154 q2 -47 -4 -141q-4 -53 -14 -154q37 -8 39 -6q47 6 47 -45q0 -53 -41 -41h6q-18 -4 -29 10l4 -4h2h-2q-8 -2 -26 -6q-23 4 -70 2q-14 -6 -24 0q-14 -4 -27 0q-25 6 -27 6q-39 4 -41 37z" />
<glyph unicode="&#xba;" horiz-adv-x="655" d="M32 979q-2 37 -2 71q0 133 39 208q12 25 62 78q18 25 63 69q47 35 102 35h7q70 0 129 -43q100 -74 147 -219q23 -66 25 -119q10 -152 10 -153q-2 -18 -12 -78q-2 -4 -2 -14q-8 -27 -54 -103q-51 -88 -100 -124t-102 -38h-9q-107 0 -190 101q-101 124 -113 329zM122 984 q0 -141 103 -261q61 -72 115 -75q4 0 7 -1q47 0 91 46q33 35 57 125q8 33 23 98q2 7 2 23.5t-2 41.5q-2 51 -6 66q-8 33 -27 100q-29 92 -86 144q-43 39 -88 39h-4q-74 -2 -129.5 -99t-55.5 -247zM88 408q4 10 17 10q8 -2 18 0q2 2 18.5 -7.5t30.5 -4.5q18 6 56 12 q16 2 50 -1t48 -3t44 7t38 7q8 -6 24 -12q12 8 41 14q16 -6 52 -14q23 0 65 -8q12 -6 14 -33q4 -55 -18 -64q-20 2 -59 4q-76 -2 -176 9q-33 -8 -101 -17q-27 6 -80 17q-27 -6 -71 2q-36 29 -11 82z" />
<glyph unicode="&#xbb;" horiz-adv-x="700" d="M16 106l31 44q2 4 8 10t21 16q27 18 45 57q25 49 78 115q82 102 88 111q-33 31 -90 98q-4 18 -19 47q-14 10 -41 33q-4 6 -41 78q-8 12 -51 80q-27 41 -27 53q0 37 43 45q23 6 41.5 -8.5t38.5 -48.5q27 -47 33 -58q61 -80 223 -321q-29 -51 -92 -150q-39 -41 -117 -127 q-4 -6 -43 -63q-25 -39 -51 -56q-16 -10 -31 -8q-18 4 -34.5 20.5t-12.5 32.5zM262 106l31 44q2 4 8 10t21 16q27 18 45 57q25 49 77 115q82 102 88 111q-33 31 -90 98q-4 18 -18 47q-14 10 -41 33q-4 6 -41 78q-8 12 -51 80q-27 41 -27 53q0 37 43 45q23 6 41.5 -8.5 t38.5 -48.5q27 -47 33 -58q61 -80 223 -321q-29 -51 -92 -150q-39 -41 -117 -127q-4 -6 -43 -63q-25 -39 -51 -56q-16 -10 -31 -8q-18 4 -34.5 20.5t-12.5 32.5z" />
<glyph unicode="&#xbc;" horiz-adv-x="1017" d="M33 598q-2 51 37 51q-4 0 18 -4h43v25l25 -4l-9 -17h11q-8 -6 -17 -6q-10 0 -10 16v5q0 12 5 28.5t5 61.5q-2 39 4 102q8 78 7.5 103.5t3.5 80.5q6 27 3 47.5t9 86.5l-29 2q-16 2 -43 16q-10 10 -12 27q0 20 17.5 33.5t64.5 9.5q2 0 100 -13q-4 -55 -12 -155 q-6 -51 -14 -154q2 -47 -4 -141q-4 -53 -15 -154q37 -8 39 -6q47 6 47 -45q0 -53 -41 -41h6q-18 -4 -28 10l4 -4h2h-2q-8 -2 -27 -6q-23 4 -69 2q-14 -6 -25 0q-14 -4 -27 0q-25 6 -26 6q-39 4 -41 37zM182 98q18 35 56 103q66 141 184 362q20 37 47 112t43 107 q33 51 94 158q14 39 49 113q27 49 56 51q33 2 51 -23q12 -20 -14 -67q-8 -14 -37 -56q-25 -31 -41 -81q-23 -68 -70 -164l-82 -160q-16 -51 -57 -150q-12 -14 -35 -47q-6 -23 -20 -67q-25 -41 -74 -121q-2 -6 -47 -86q-10 -23 -37 -59q-23 -20 -57 2t-9 73zM494 248 q70 104 274 407q12 20 25 39q20 27 38 19q12 -4 35 -8h6q23 -2 25 -23q0 -29 -6 -109q-6 -86 -14 -258q23 0 63 -12q20 -12 21 -35q0 -29 -50 -37q-14 -2 -37 -2q-4 -33 -10 -100l-2 6l-14 -12q4 0 4 -2l-2 16l2 2l4 2q10 6 25 0l20 -6q37 -4 39 -29q8 -59 -35 -59 q-6 0 -16 4q-33 0 -74 6q-10 -8 -59 0q-10 2 -19 2q-27 -4 -36 13.5t-5 42.5q4 31 31 28q10 6 25 -4h4q8 4 22 4q2 18 4 60v6q0 16 2 24q-63 5 -290 15zM664 332q43 -4 131 -13q0 12 -2 31q-2 70 4 195q-20 -29 -33 -53q-16 -33 -55 -93q-10 -8 -27 -30q-2 -2 -18 -37z" />
<glyph unicode="&#xbd;" horiz-adv-x="1021" d="M162 98q18 35 55 103q66 141 185 362q20 37 46.5 112t43.5 107q33 51 94 158q14 39 49 113q27 49 55 51q33 2 52 -23q12 -20 -15 -67q-8 -14 -37 -56q-25 -31 -41 -81q-23 -68 -69 -164l-82 -160q-16 -51 -58 -150q-12 -14 -34 -47q-6 -23 -21 -67q-25 -41 -74 -121 q-2 -6 -47 -86q-10 -23 -37 -59q-23 -20 -56.5 2t-8.5 73zM32 598q-2 51 37 51q-4 0 19 -4h43v25l24 -4l-8 -17h10q-8 -6 -16 -6q-10 0 -10 16v5q0 12 5 28.5t5 61.5q-2 39 4 102q8 78 7 103.5t3 80.5q6 27 3 47.5t10 86.5l-29 2q-16 2 -43 16q-10 10 -12 27q0 20 17 33.5 t65 9.5q2 0 100 -13q-4 -55 -12 -155q-6 -51 -15 -154q2 -47 -4 -141q-4 -53 -14 -154q37 -8 39 -6q47 6 47 -45q0 -53 -41 -41h6q-18 -4 -29 10l4 -4h2h-2q-8 -2 -26 -6q-23 4 -70 2q-14 -6 -24 0q-14 -4 -27 0q-25 6 -27 6q-39 4 -41 37zM606 -3l58 76q84 106 157 234 q70 121 64 168q-14 109 -92 114q-59 4 -78 -37q-6 -14 -14 -81q-4 -49 -29 -60q-37 -16 -53 27q-10 31 -4 84v4q0 35 36 80q51 68 144 67q74 2 124 -51t54 -141q2 -59 -57 -189q-10 -25 -35 -71q-16 -20 -45 -62q-12 -25 -45 -76q45 0 131 -4q14 -2 41 -10q27 -18 18 -43 q-12 -35 -139 -31q-72 2 -236 2z" />
<glyph unicode="&#xbe;" horiz-adv-x="1099" d="M33 635q0 18 15 28.5t34 6.5q27 -16 82 -43h2q18 -6 51 -15q47 -4 77 23t30 72q0 51 -33 81q-55 51 -111 52q-33 0 -76 -2l-4 84q49 0 82 4q16 0 75.5 29.5t59.5 78.5q0 55 -20.5 79t-73.5 24q-35 2 -71 -21q-59 -35 -80 -29q-41 10 -21 48q20 41 76 65q49 25 98 23 q94 -2 145.5 -55.5t45.5 -139.5q-10 -94 -103 -147q104 -53 105 -166q0 -82 -57.5 -132.5t-145.5 -52.5q-45 0 -109 29q-73 35 -73 76zM264 98q18 35 55 103q66 141 185 362q20 37 47 112t43 107q33 51 94 158q14 39 49 113q27 49 56 51q33 2 51 -23q12 -20 -15 -67 q-8 -14 -36 -56q-25 -31 -41 -81q-23 -68 -70 -164l-82 -160q-16 -51 -57 -150q-12 -14 -35 -47q-6 -23 -21 -67q-25 -41 -73 -121q-2 -6 -47 -86q-10 -23 -37 -59q-23 -20 -57 2t-9 73zM575 248q70 104 275 407q12 20 24 39q20 27 39 19q12 -4 35 -8h6q23 -2 25 -23 q0 -29 -6 -109q-6 -86 -15 -258q23 0 64 -12q20 -12 20 -35q0 -29 -49 -37q-14 -2 -37 -2q-4 -33 -10 -100l-2 6l-14 -12q4 0 4 -2l-2 16l2 2l4 2q10 6 25 0l20 -6q37 -4 39 -29q8 -59 -35 -59q-6 0 -16 4q-33 0 -74 6q-10 -8 -59 0q-10 2 -19 2q-27 -4 -36 13.5t-5 42.5 q4 31 31 28q10 6 25 -4h4q8 4 22 4q2 18 4 60v6q0 16 2 24q-64 5 -291 15zM745 332q43 -4 132 -13q0 12 -3 31q-2 70 5 195q-20 -29 -33 -53q-16 -33 -55 -93q-10 -8 -27 -30q-3 -2 -19 -37z" />
<glyph unicode="&#xbf;" horiz-adv-x="602" d="M16 307q2 100 33 185q12 33 51 90q29 18 84 55q31 25 95 61q39 8 110 37q41 29 45 109q-2 25 4 76q2 10 25 22q16 8 26 8q14 -2 30 -26.5t16 -71.5q0 -119 -78 -188q-37 -33 -125 -68q-94 -39 -129 -66q-100 -80 -97 -225q2 -53 33 -121q43 -94 90 -123q55 -33 138 -6 q86 29 94 29q18 0 31 -8q20 -14 16 -33q-2 -25 -41 -47q-16 -8 -47 -25q-8 -2 -23 -8q-6 -2 -55 -2q-98 -2 -167 25.5t-109 101.5q-52 88 -50 219zM389 1124q8 18 33 47q12 12 41 3q82 -37 82 -72q-4 -27 -31 -48.5t-53 -21.5q-35 0 -49 15q-6 16 -21 45q-16 22 -2 32z" />
<glyph unicode="&#xc0;" horiz-adv-x="962" d="M-111 39q0 35 12 51q6 8 23 4q25 -6 29 -6h18q38 0 84 -6q2 14 18 78q14 35 39 106q41 145 123 377q14 39 27.5 115t23.5 110q25 55 68 166q2 6 18 80q12 51 31 76q-4 4 -8 6q-8 -8 -29 -14q-12 6 -39 14q-16 0 -49 8q-8 6 -10 41q0 35 10 51q6 8 23 4q23 -4 26 -4 q9 0 19 1q49 0 110 -9q27 8 76 15q20 -6 59 -15q18 4 50 0q14 -10 14 -49q0 -41 -9 -42t-22 -5q0 -2 -14 8q-6 6 -14 6t-20.5 -5t-16.5 -7q-14 -2 -37 0q2 -6 6 -20.5t12 -47.5q-2 -6 -2 -20q4 -45 25 -90q31 -68 61 -174l49 -176q23 -49 60 -152l6 -61q12 -23 33 -66 q8 -47 28 -141l25 -99q12 -51 14 -100q16 6 51 12q12 0 33 -6t31 -6q18 6 53 2q14 -8 17 -47q1 -9 0 -16q0 -18 -3 -25q-5 -10 -16 -8h-22q-2 6 -21 12q-8 0 -21.5 -6t-17.5 -6q-14 -4 -38 -4q-12 0 -26.5 1t-26.5 1q-25 0 -40 -4q-29 -10 -24 -10q-6 4 -21 10 q-10 -6 -31 -15q-14 6 -41 13q-18 0 -53 8q-10 4 -12 39t8 53q6 8 23 4q27 -4 28 -4q19 1 41.5 1t46.5 -1q-18 31 -30 80q-16 72 -19 80q-29 86 -57 192q-53 6 -35 9q-11 0 -22 -1q-56 0 -125 9q-29 -6 -84 -15q-23 8 -66 17q-18 -4 -53 -2q0 -12 -2 -39q-18 -41 -53 -127 q-12 -35 -37 -107q-6 -18 -27 -51l-4 -4q18 6 31 6q20 -8 61 -16q20 4 53 0q14 -10 15 -49q0 -39 -9.5 -41t-23.5 -6q-2 -2 -12.5 6t-18.5 8t-21.5 -5t-17.5 -7q-6 0 -69 4q-41 -6 -86 -13q-6 6 -21 13q-10 -6 -33 -13q-12 6 -38 15q-18 2 -54 10q-10 6 -10 41zM301 502 q8 -4 14 -4q8 0 21.5 5t19.5 7q6 0 72 -4q41 6 90 12q6 -4 20 -12q10 6 35 12q14 -6 49 -14q-12 47 -26 102q-10 43 -42 118t-42 110q-12 78 -56 237q-4 -6 -12 -22q-10 -25 -16 -66q-10 -70 -43 -168l-54 -168q-7 -49 -30 -145zM266 1716q4 33 64 47q16 4 22 -2q0 -8 9 -18 q4 0 4 -8l-4 -8q-2 -10 5 -19.5t23.5 -28t32.5 -61.5t33 -61q10 -6 20 -19q-2 -8 0 -24q10 -6 27 -23q0 -16 6 -45q8 -16 16 -53q2 -10 -22 -25q-35 -20 -59 -16q-10 0 -15 18q-6 27 -8 29q-31 55 -59 133q-20 23 -52 70q-4 23 -16 65q-2 6 -14.5 22.5t-12.5 26.5z" />
<glyph unicode="&#xc1;" horiz-adv-x="962" d="M-111 39q0 35 12 51q6 8 23 4q25 -6 29 -6h18q38 0 84 -6q2 14 18 78q14 35 39 106q41 145 123 377q14 39 27.5 115t23.5 110q25 55 68 166q2 6 18 80q12 51 31 76q-4 4 -8 6q-8 -8 -29 -14q-12 6 -39 14q-16 0 -49 8q-8 6 -10 41q0 35 10 51q6 8 23 4q23 -4 26 -4 q9 0 19 1q49 0 110 -9q27 8 76 15q20 -6 59 -15q18 4 50 0q14 -10 14 -49q0 -41 -9 -42t-22 -5q0 -2 -14 8q-6 6 -14 6t-20.5 -5t-16.5 -7q-14 -2 -37 0q2 -6 6 -20.5t12 -47.5q-2 -6 -2 -20q4 -45 25 -90q31 -68 61 -174l49 -176q23 -49 60 -152l6 -61q12 -23 33 -66 q8 -47 28 -141l25 -99q12 -51 14 -100q16 6 51 12q12 0 33 -6t31 -6q18 6 53 2q14 -8 17 -47q1 -9 0 -16q0 -18 -3 -25q-5 -10 -16 -8h-22q-2 6 -21 12q-8 0 -21.5 -6t-17.5 -6q-14 -4 -38 -4q-12 0 -26.5 1t-26.5 1q-25 0 -40 -4q-29 -10 -24 -10q-6 4 -21 10 q-10 -6 -31 -15q-14 6 -41 13q-18 0 -53 8q-10 4 -12 39t8 53q6 8 23 4q27 -4 28 -4q19 1 41.5 1t46.5 -1q-18 31 -30 80q-16 72 -19 80q-29 86 -57 192q-53 6 -35 9q-11 0 -22 -1q-56 0 -125 9q-29 -6 -84 -15q-23 8 -66 17q-18 -4 -53 -2q0 -12 -2 -39q-18 -41 -53 -127 q-12 -35 -37 -107q-6 -18 -27 -51l-4 -4q18 6 31 6q20 -8 61 -16q20 4 53 0q14 -10 15 -49q0 -39 -9.5 -41t-23.5 -6q-2 -2 -12.5 6t-18.5 8t-21.5 -5t-17.5 -7q-6 0 -69 4q-41 -6 -86 -13q-6 6 -21 13q-10 -6 -33 -13q-12 6 -38 15q-18 2 -54 10q-10 6 -10 41zM301 502 q8 -4 14 -4q8 0 21.5 5t19.5 7q6 0 72 -4q41 6 90 12q6 -4 20 -12q10 6 35 12q14 -6 49 -14q-12 47 -26 102q-10 43 -42 118t-42 110q-12 78 -56 237q-4 -6 -12 -22q-10 -25 -16 -66q-10 -70 -43 -168l-54 -168q-7 -49 -30 -145zM395 1409q6 18 17 53q2 14 8 46q10 6 27 22 q-2 8 -2 25q8 8 20 18q16 18 33.5 61.5t30.5 59.5q10 10 22 21.5t10 27.5q-2 2 -4 8q-2 8 2 11.5t10 15.5q6 6 21 2q61 -14 63 -47q2 -10 -10 -26.5t-16 -22.5q-2 -23 -15 -66q-23 -20 -53 -70q-29 -78 -59 -133q-2 -23 -23 -47q-23 -4 -59 17q-23 14 -23 24z" />
<glyph unicode="&#xc2;" horiz-adv-x="962" d="M-111 39q0 35 12 51q6 8 23 4q25 -6 29 -6h18q38 0 84 -6q2 14 18 78q14 35 39 106q41 145 123 377q14 39 27.5 115t23.5 110q25 55 68 166q2 6 18 80q12 51 31 76q-4 4 -8 6q-8 -8 -29 -14q-12 6 -39 14q-16 0 -49 8q-8 6 -10 41q0 35 10 51q6 8 23 4q23 -4 26 -4 q9 0 19 1q49 0 110 -9q27 8 76 15q20 -6 59 -15q18 4 50 0q14 -10 14 -49q0 -41 -9 -42t-22 -5q0 -2 -14 8q-6 6 -14 6t-20.5 -5t-16.5 -7q-14 -2 -37 0q2 -6 6 -20.5t12 -47.5q-2 -6 -2 -20q4 -45 25 -90q31 -68 61 -174l49 -176q23 -49 60 -152l6 -61q12 -23 33 -66 q8 -47 28 -141l25 -99q12 -51 14 -100q16 6 51 12q12 0 33 -6t31 -6q18 6 53 2q14 -8 17 -47q1 -9 0 -16q0 -18 -3 -25q-5 -10 -16 -8h-22q-2 6 -21 12q-8 0 -21.5 -6t-17.5 -6q-14 -4 -38 -4q-12 0 -26.5 1t-26.5 1q-25 0 -40 -4q-29 -10 -24 -10q-6 4 -21 10 q-10 -6 -31 -15q-14 6 -41 13q-18 0 -53 8q-10 4 -12 39t8 53q6 8 23 4q27 -4 28 -4q19 1 41.5 1t46.5 -1q-18 31 -30 80q-16 72 -19 80q-29 86 -57 192q-53 6 -35 9q-11 0 -22 -1q-56 0 -125 9q-29 -6 -84 -15q-23 8 -66 17q-18 -4 -53 -2q0 -12 -2 -39q-18 -41 -53 -127 q-12 -35 -37 -107q-6 -18 -27 -51l-4 -4q18 6 31 6q20 -8 61 -16q20 4 53 0q14 -10 15 -49q0 -39 -9.5 -41t-23.5 -6q-2 -2 -12.5 6t-18.5 8t-21.5 -5t-17.5 -7q-6 0 -69 4q-41 -6 -86 -13q-6 6 -21 13q-10 -6 -33 -13q-12 6 -38 15q-18 2 -54 10q-10 6 -10 41zM301 502 q8 -4 14 -4q8 0 21.5 5t19.5 7q6 0 72 -4q41 6 90 12q6 -4 20 -12q10 6 35 12q14 -6 49 -14q-12 47 -26 102q-10 43 -42 118t-42 110q-12 78 -56 237q-4 -6 -12 -22q-10 -25 -16 -66q-10 -70 -43 -168l-54 -168q-7 -49 -30 -145zM231 1454q-2 16 18.5 29.5t39.5 24.5 q51 39 172 110q27 -10 80 -37q20 -23 65 -67q20 -10 42 -23.5t22 -34.5q0 -47 -45 -65q2 0 -25 10v-2l-3 5q-3 5 -7 13q-6 18 -27 23q-27 4 -55 29q-25 18 -49 39q-14 -18 -45 -50q-8 2 -21 3q-4 -10 -16 -29q-14 -4 -45 -15q-12 -8 -27.5 -17t-28.5 -7q-8 2 -25.5 24.5 t-19.5 36.5z" />
<glyph unicode="&#xc3;" horiz-adv-x="962" d="M-111 39q0 35 12 51q6 8 23 4q25 -6 29 -6h18q38 0 84 -6q2 14 18 78q14 35 39 106q41 145 123 377q14 39 27.5 115t23.5 110q25 55 68 166q2 6 18 80q12 51 31 76q-4 4 -8 6q-8 -8 -29 -14q-12 6 -39 14q-16 0 -49 8q-8 6 -10 41q0 35 10 51q6 8 23 4q23 -4 26 -4 q9 0 19 1q49 0 110 -9q27 8 76 15q20 -6 59 -15q18 4 50 0q14 -10 14 -49q0 -41 -9 -42t-22 -5q0 -2 -14 8q-6 6 -14 6t-20.5 -5t-16.5 -7q-14 -2 -37 0q2 -6 6 -20.5t12 -47.5q-2 -6 -2 -20q4 -45 25 -90q31 -68 61 -174l49 -176q23 -49 60 -152l6 -61q12 -23 33 -66 q8 -47 28 -141l25 -99q12 -51 14 -100q16 6 51 12q12 0 33 -6t31 -6q18 6 53 2q14 -8 17 -47q1 -9 0 -16q0 -18 -3 -25q-5 -10 -16 -8h-22q-2 6 -21 12q-8 0 -21.5 -6t-17.5 -6q-14 -4 -38 -4q-12 0 -26.5 1t-26.5 1q-25 0 -40 -4q-29 -10 -24 -10q-6 4 -21 10 q-10 -6 -31 -15q-14 6 -41 13q-18 0 -53 8q-10 4 -12 39t8 53q6 8 23 4q27 -4 28 -4q19 1 41.5 1t46.5 -1q-18 31 -30 80q-16 72 -19 80q-29 86 -57 192q-53 6 -35 9q-11 0 -22 -1q-56 0 -125 9q-29 -6 -84 -15q-23 8 -66 17q-18 -4 -53 -2q0 -12 -2 -39q-18 -41 -53 -127 q-12 -35 -37 -107q-6 -18 -27 -51l-4 -4q18 6 31 6q20 -8 61 -16q20 4 53 0q14 -10 15 -49q0 -39 -9.5 -41t-23.5 -6q-2 -2 -12.5 6t-18.5 8t-21.5 -5t-17.5 -7q-6 0 -69 4q-41 -6 -86 -13q-6 6 -21 13q-10 -6 -33 -13q-12 6 -38 15q-18 2 -54 10q-10 6 -10 41zM301 502 q8 -4 14 -4q8 0 21.5 5t19.5 7q6 0 72 -4q41 6 90 12q6 -4 20 -12q10 6 35 12q14 -6 49 -14q-12 47 -26 102q-10 43 -42 118t-42 110q-12 78 -56 237q-4 -6 -12 -22q-10 -25 -16 -66q-10 -70 -43 -168l-54 -168q-7 -49 -30 -145zM206 1503q0 2 23 29q-2 0 8 6h14q16 0 31 10 q39 29 74 29q27 0 76 -34t77 -32q8 -10 23 -12q6 8 25.5 8t23.5 2q16 14 51 27q8 0 33 -16l10 -7l9 -8q23 -16 10 -37q-8 -16 -35 -30q-86 -47 -133 -43q-43 2 -80 28q-18 16 -57 43q-12 -2 -39 2q-23 12 -35 4t-26.5 -18t-24.5 -8q-54 18 -58 57z" />
<glyph unicode="&#xc4;" horiz-adv-x="962" d="M-111 39q0 35 12 51q6 8 23 4q25 -6 29 -6h18q38 0 84 -6q2 14 18 78q14 35 39 106q41 145 123 377q14 39 27.5 115t23.5 110q25 55 68 166q2 6 18 80q12 51 31 76q-4 4 -8 6q-8 -8 -29 -14q-12 6 -39 14q-16 0 -49 8q-8 6 -10 41q0 35 10 51q6 8 23 4q23 -4 26 -4 q9 0 19 1q49 0 110 -9q27 8 76 15q20 -6 59 -15q18 4 50 0q14 -10 14 -49q0 -41 -9 -42t-22 -5q0 -2 -14 8q-6 6 -14 6t-20.5 -5t-16.5 -7q-14 -2 -37 0q2 -6 6 -20.5t12 -47.5q-2 -6 -2 -20q4 -45 25 -90q31 -68 61 -174l49 -176q23 -49 60 -152l6 -61q12 -23 33 -66 q8 -47 28 -141l25 -99q12 -51 14 -100q16 6 51 12q12 0 33 -6t31 -6q18 6 53 2q14 -8 17 -47q1 -9 0 -16q0 -18 -3 -25q-5 -10 -16 -8h-22q-2 6 -21 12q-8 0 -21.5 -6t-17.5 -6q-14 -4 -38 -4q-12 0 -26.5 1t-26.5 1q-25 0 -40 -4q-29 -10 -24 -10q-6 4 -21 10 q-10 -6 -31 -15q-14 6 -41 13q-18 0 -53 8q-10 4 -12 39t8 53q6 8 23 4q27 -4 28 -4q19 1 41.5 1t46.5 -1q-18 31 -30 80q-16 72 -19 80q-29 86 -57 192q-53 6 -35 9q-11 0 -22 -1q-56 0 -125 9q-29 -6 -84 -15q-23 8 -66 17q-18 -4 -53 -2q0 -12 -2 -39q-18 -41 -53 -127 q-12 -35 -37 -107q-6 -18 -27 -51l-4 -4q18 6 31 6q20 -8 61 -16q20 4 53 0q14 -10 15 -49q0 -39 -9.5 -41t-23.5 -6q-2 -2 -12.5 6t-18.5 8t-21.5 -5t-17.5 -7q-6 0 -69 4q-41 -6 -86 -13q-6 6 -21 13q-10 -6 -33 -13q-12 6 -38 15q-18 2 -54 10q-10 6 -10 41zM301 502 q8 -4 14 -4q8 0 21.5 5t19.5 7q6 0 72 -4q41 6 90 12q6 -4 20 -12q10 6 35 12q14 -6 49 -14q-12 47 -26 102q-10 43 -42 118t-42 110q-12 78 -56 237q-4 -6 -12 -22q-10 -25 -16 -66q-10 -70 -43 -168l-54 -168q-7 -49 -30 -145zM282 1481q4 27 31 48.5t53 21.5q35 0 50 -15 q6 -16 21 -41.5t1 -35.5q-10 -18 -33 -47q-14 -12 -41 -2q-82 32 -82 71zM487 1481q4 27 31 48.5t53 21.5q35 0 49 -15q6 -16 21.5 -41.5t1.5 -35.5q-10 -18 -33 -47q-14 -12 -41 -2q-82 32 -82 71z" />
<glyph unicode="&#xc5;" horiz-adv-x="962" d="M-111 39q0 35 12 51q6 8 23 4q25 -6 29 -6h18q38 0 84 -6q2 14 18 78q14 35 39 106q41 145 123 377q14 39 27.5 115t23.5 110q25 55 68 166q2 6 18 80q12 51 31 76q-4 4 -8 6q-8 -8 -29 -14q-12 6 -39 14q-16 0 -49 8q-8 6 -10 41q0 35 10 51q6 8 23 4q23 -4 26 -4 q9 0 19 1q49 0 110 -9q27 8 76 15q20 -6 59 -15q18 4 50 0q14 -10 14 -49q0 -41 -9 -42t-22 -5q0 -2 -14 8q-6 6 -14 6t-20.5 -5t-16.5 -7q-14 -2 -37 0q2 -6 6 -20.5t12 -47.5q-2 -6 -2 -20q4 -45 25 -90q31 -68 61 -174l49 -176q23 -49 60 -152l6 -61q12 -23 33 -66 q8 -47 28 -141l25 -99q12 -51 14 -100q16 6 51 12q12 0 33 -6t31 -6q18 6 53 2q14 -8 17 -47q1 -9 0 -16q0 -18 -3 -25q-5 -10 -16 -8h-22q-2 6 -21 12q-8 0 -21.5 -6t-17.5 -6q-14 -4 -38 -4q-12 0 -26.5 1t-26.5 1q-25 0 -40 -4q-29 -10 -24 -10q-6 4 -21 10 q-10 -6 -31 -15q-14 6 -41 13q-18 0 -53 8q-10 4 -12 39t8 53q6 8 23 4q27 -4 28 -4q19 1 41.5 1t46.5 -1q-18 31 -30 80q-16 72 -19 80q-29 86 -57 192q-53 6 -35 9q-11 0 -22 -1q-56 0 -125 9q-29 -6 -84 -15q-23 8 -66 17q-18 -4 -53 -2q0 -12 -2 -39q-18 -41 -53 -127 q-12 -35 -37 -107q-6 -18 -27 -51l-4 -4q18 6 31 6q20 -8 61 -16q20 4 53 0q14 -10 15 -49q0 -39 -9.5 -41t-23.5 -6q-2 -2 -12.5 6t-18.5 8t-21.5 -5t-17.5 -7q-6 0 -69 4q-41 -6 -86 -13q-6 6 -21 13q-10 -6 -33 -13q-12 6 -38 15q-18 2 -54 10q-10 6 -10 41zM301 502 q8 -4 14 -4q8 0 21.5 5t19.5 7q6 0 72 -4q41 6 90 12q6 -4 20 -12q10 6 35 12q14 -6 49 -14q-12 47 -26 102q-10 43 -42 118t-42 110q-12 78 -56 237q-4 -6 -12 -22q-10 -25 -16 -66q-10 -70 -43 -168l-54 -168q-7 -49 -30 -145zM329 1513q-8 74 13 107l43 37q35 33 63 32 q29 -12 51 -26q55 -31 70 -60q23 -41 16 -61q0 -12 4 -27q4 -8 -2 -53l-2 -4q-2 -10 -26 -35q-49 -53 -84 -59q-53 0 -86 28q-50 43 -60 121zM405 1519q2 -51 64 -69q18 -4 28 10q25 35 25 43q0 16 -8 31.5t-23 42.5q-14 18 -39 16q-20 0 -34.5 -24.5t-12.5 -49.5z" />
<glyph unicode="&#xc6;" horiz-adv-x="1648" d="M16 88q2 35 15 51q8 6 22 2q25 -8 29 -8q39 -2 90 -10q12 31 57 94q53 72 68 96q78 147 219 377q25 37 58.5 116t52.5 112q39 53 110 163q20 51 80 144q-51 2 -100 -2q-98 -10 -128 15.5t-7 61.5q8 14 36 19q18 -2 56 0q-4 2 10 2q29 -6 90 -12q66 8 199 18q92 0 278 4 q51 8 154 19q23 -6 68 -11q35 6 102 17q2 -41 -4 -113q-8 -80 -8 -109.5t-2 -89.5q2 -20 -11 -57q-23 -27 -57 -12q-27 12 -31 41v49q2 35 -2 172q-111 4 -330 2q-27 -2 -94 -12q-57 -10 -92 -10q0 -6 2 -18.5t-2 -45.5q-2 -8 -6 -18q-4 -23 -4 -48q0 -14 6 -45 q12 -68 14 -168q2 -84 4 -169q6 0 15 4q2 6 12 -7q6 -4 12 -4q8 4 27 15q31 -4 92 8q20 10 17 10q4 0 9 -6t9 -4q4 4 14 12q6 4 18.5 -3t17.5 -7t22 -2q-6 14 -6 22q0 10 7 30t7 30q-6 16 -4 47q10 14 49 16q43 2 43 -8t4 -20q4 0 -6 -15q-6 -6 -6 -14q0 -6 6 -18l8 -17 q-4 -41 6 -119q10 -29 10 -22q-4 -6 -12 -21q8 -8 14 -28l-12 -37q0 -16 -6 -49q-4 -8 -39 -11q-35 -4 -53 9q-8 4 -4 20q4 23 4 25q-4 37 -2 80q-29 2 -25 2q-41 -4 -98 2q-12 0 -30.5 -10.5t-26.5 -10.5t-23.5 6t-23.5 6q-12 -4 -33 -6q8 -47 8 -73q0 -12 -5 -32t-5 -28 q0 -12 7 -35.5t9 -31.5q2 -27 -2 -70q-6 -57 -6 -66.5t-2 -99.5v-113q37 4 59 5q20 0 113 -5q68 -4 110 -2q16 0 50 6.5t53 6.5q10 0 33.5 -7.5t38.5 -5.5q12 6 38 13q0 25 8.5 70.5t8.5 64.5v51q2 31 13 45t34 16q23 4 35 -8q23 -16 22 -61q0 -29 -4 -88q-2 -70 -4 -207 q-45 0 -160 8q-104 6 -161 6q-43 -6 -132 -14q-31 -2 -155 12h-150q-72 -2 -94 21q-10 10 -10 30q0 43 24 50q18 -2 54 0q-4 0 6 0q23 -6 72 -15l-3 2q2 80 3 201q-4 80 -7 180q-29 8 -82 8q-66 2 -83 7q-29 -8 -84 -15q-23 6 -66 17q-20 -6 -55 -2q-4 4 -6 8 q-6 -20 -19 -58q-29 -43 -86 -127q-33 -51 -98 -151q20 -10 65 -23q18 4 52 -2q12 -12 10 -51q-2 -14 -10 -39q-10 0 -25 -4q-2 -2 -12.5 6t-18.5 10q-6 0 -19.5 -4t-19.5 -6q-41 10 -125 10q-31 -6 -26 -8q-4 6 -19 15q-10 -6 -30 -11q-12 6 -39 17q-16 2 -49 14 q-11 6 -9 41zM549 535q0 -2 2 -3q8 0 21.5 6.5t19.5 6.5q6 2 72 -2q41 6 88 10q8 -4 22 -12q10 8 33 14q14 -6 41 -14q6 -2 20 -4q0 80 2 118q0 41 -12 119t-12 113q4 59 8 180q0 16 -2 37q-8 -6 -23 -25q-16 -25 -32 -65q-29 -72 -86 -172q-49 -82 -99 -166 q-18 -47 -63 -141z" />
<glyph unicode="&#xc7;" horiz-adv-x="847" d="M-8 659q0 121 16 265q25 215 114 331.5t210 126.5q121 12 225.5 -52t165.5 -197q31 -68 41 -134q8 -55 -8.5 -78.5t-38.5 -13.5q-16 6 -27 29q-16 55 -59 158q-2 4 -6 10q-20 43 -64 113q-39 49 -92 67.5t-125 3.5q-66 -12 -121 -80q-61 -78 -98 -211q-43 -145 -43 -303 q0 -98 18 -194q8 -51 50 -183q14 -51 53 -147q12 -18 53 -53q96 -84 188 -84q78 0 138.5 36.5t95.5 114.5q23 51 35 129q6 39 10 54q10 31 27.5 41t29.5 2q14 -10 27 -66q12 -63 -21 -156q-35 -104 -106 -168q-86 -76 -211 -92l-6 -30q0 -2 -2 -7q-2 -12 -15 -30q12 2 37 4 q57 2 113 -27q41 -20 69.5 -64t28.5 -89q0 -123 -84 -172q-12 -8 -41 -9q-35 -2 -45 -4q-18 -6 -57 -14q-25 -4 -84 18q-43 12 -127 43q-23 6 -59 33q-6 8 0 33q4 14 10 25q18 25 57 12q31 -12 92 -33q94 -18 133 -18q41 0 72 12q45 16 45 74q-2 29 -74 63q-53 25 -90 27 q-12 2 -108 -4l18 75q2 27 15 82q-174 31 -277 238q-98 200 -98 493z" />
<glyph unicode="&#xc8;" horiz-adv-x="903" d="M-70 1198q-11 19 -11 34q0 20 19 32q12 8 35 8h39q-2 2 8 2q27 -6 82 -12q61 8 184 20q21 -1 48 0q79 0 204 4q47 8 142 17q10 0 26.5 -5.5t24.5 -5.5q-2 0 -2 1q0 2 73 14q3 -20 3.5 -46t-3.5 -57q-8 -90 -8 -104q-2 -37 -4 -109q2 -23 -14 -55q-31 -23 -60 -4 q-25 14 -24 57q0 4 4 70q0 25 -2 65q-4 49 -4 66q-59 3 -159 3q-50 0 -109 -1q-53 -10 -160 -23q-23 0 -56 5q6 -12 7 -27v-25q4 -6 0 -45q-4 -6 -9 -18q-4 -20 -4 -45q0 -16 4 -47q10 -55 11 -312q6 -4 12 -4q8 4 27 15q8 -1 17 -1q29 0 75 9q20 10 16 10q4 0 9 -6t10 -4 q4 6 14 14q6 2 18.5 -5t17.5 -7t21 -2q-6 14 -6 22q0 12 7 30.5t7 29.5q-6 16 -4 49q10 12 49 14q43 2 43 -8t5 -18q4 -2 -7 -17q-6 -6 -6 -14q0 -6 6 -19l9 -16q-1 -12 -2 -26q0 -37 8 -93q10 -29 10 -22l-12 -19q8 -10 14 -30l-12 -37q0 -16 -6 -49q-4 -8 -39 -11 q-35 -2 -54 9q-8 4 -4 20q4 23 4 27q-3 23 -2 50v27q-29 2 -24 5q-20 -3 -45 -3.5t-53 3.5q-12 0 -31 -9.5t-27 -11.5q-8 0 -23.5 6t-23.5 6q-4 2 -12 -2q12 -90 12 -110q-6 -18 -12 -58q0 -12 7 -35.5t7 -31.5q1 -10 1 -21q0 -22 -3 -51q-8 -57 -9 -66.5t-3 -99.5 q0 -20 -2 -44.5t-15 -35.5q37 4 60 4q20 0 112 -4q68 -2 111 -2q16 2 50 8.5t52 4.5q10 0 34 -7.5t38 -5.5q12 6 39 13q0 27 8 69q8 51 10 70v49q0 31 11.5 44t34.5 17q23 2 34 -10q23 -16 23 -61q0 -29 -4 -88q-2 -70 -4 -207q-45 0 -160 8q-104 6 -162 6q-43 -6 -131 -14 h-9q-37 0 -147 12q-7 1 -44.5 1t-104.5 -1h-12q-62 0 -82 21q-10 10 -11 32q0 41 25 47q18 -2 53 0q-4 0 6 0q25 -6 76 -14q16 0 37 2q-25 14 -27 55q2 39 5 115q-3 66 -3 150q0 111 5 254q0 41 -10.5 117.5t-10.5 113.5q0 33 6 93.5t6 88.5q-4 39 -6 121q2 47 19 64 q-37 -5 -98 -6q-30 0 -66 2q-27 6 -37 22zM180 1728q4 33 64 47q16 4 22 -2q0 -8 9 -18q4 0 4 -8l-4 -8q-2 -10 5 -19.5t23.5 -28t32.5 -61.5t33 -61q10 -6 20 -19q-2 -8 0 -24q10 -6 27 -23q0 -16 6 -45q8 -16 16 -53q2 -10 -22 -25q-35 -20 -59 -16q-10 0 -15 18 q-6 27 -8 29q-31 55 -59 133q-20 23 -52 70q-4 23 -16 65q-2 6 -14.5 22.5t-12.5 26.5z" />
<glyph unicode="&#xc9;" horiz-adv-x="903" d="M-70 1198q-11 19 -11 34q0 20 19 32q12 8 35 8h39q-2 2 8 2q27 -6 82 -12q61 8 184 20q21 -1 48 0q79 0 204 4q47 8 142 17q10 0 26.5 -5.5t24.5 -5.5q-2 0 -2 1q0 2 73 14q3 -20 3.5 -46t-3.5 -57q-8 -90 -8 -104q-2 -37 -4 -109q2 -23 -14 -55q-31 -23 -60 -4 q-25 14 -24 57q0 4 4 70q0 25 -2 65q-4 49 -4 66q-59 3 -159 3q-50 0 -109 -1q-53 -10 -160 -23q-23 0 -56 5q6 -12 7 -27v-25q4 -6 0 -45q-4 -6 -9 -18q-4 -20 -4 -45q0 -16 4 -47q10 -55 11 -312q6 -4 12 -4q8 4 27 15q8 -1 17 -1q29 0 75 9q20 10 16 10q4 0 9 -6t10 -4 q4 6 14 14q6 2 18.5 -5t17.5 -7t21 -2q-6 14 -6 22q0 12 7 30.5t7 29.5q-6 16 -4 49q10 12 49 14q43 2 43 -8t5 -18q4 -2 -7 -17q-6 -6 -6 -14q0 -6 6 -19l9 -16q-1 -12 -2 -26q0 -37 8 -93q10 -29 10 -22l-12 -19q8 -10 14 -30l-12 -37q0 -16 -6 -49q-4 -8 -39 -11 q-35 -2 -54 9q-8 4 -4 20q4 23 4 27q-3 23 -2 50v27q-29 2 -24 5q-20 -3 -45 -3.5t-53 3.5q-12 0 -31 -9.5t-27 -11.5q-8 0 -23.5 6t-23.5 6q-4 2 -12 -2q12 -90 12 -110q-6 -18 -12 -58q0 -12 7 -35.5t7 -31.5q1 -10 1 -21q0 -22 -3 -51q-8 -57 -9 -66.5t-3 -99.5 q0 -20 -2 -44.5t-15 -35.5q37 4 60 4q20 0 112 -4q68 -2 111 -2q16 2 50 8.5t52 4.5q10 0 34 -7.5t38 -5.5q12 6 39 13q0 27 8 69q8 51 10 70v49q0 31 11.5 44t34.5 17q23 2 34 -10q23 -16 23 -61q0 -29 -4 -88q-2 -70 -4 -207q-45 0 -160 8q-104 6 -162 6q-43 -6 -131 -14 h-9q-37 0 -147 12q-7 1 -44.5 1t-104.5 -1h-12q-62 0 -82 21q-10 10 -11 32q0 41 25 47q18 -2 53 0q-4 0 6 0q25 -6 76 -14q16 0 37 2q-25 14 -27 55q2 39 5 115q-3 66 -3 150q0 111 5 254q0 41 -10.5 117.5t-10.5 113.5q0 33 6 93.5t6 88.5q-4 39 -6 121q2 47 19 64 q-37 -5 -98 -6q-30 0 -66 2q-27 6 -37 22zM309 1403q6 18 17 53q2 14 8 46q10 6 27 22q-2 8 -2 25q8 8 20 18q16 18 33.5 61.5t30.5 59.5q10 10 22 21.5t10 27.5q-2 2 -4 8q-2 8 2 11.5t10 15.5q6 6 21 2q61 -14 63 -47q2 -10 -10 -26.5t-16 -22.5q-2 -23 -15 -66 q-23 -20 -53 -70q-29 -78 -59 -133q-2 -23 -23 -47q-23 -4 -59 17q-23 14 -23 24z" />
<glyph unicode="&#xca;" horiz-adv-x="903" d="M-70 1198q-11 19 -11 34q0 20 19 32q12 8 35 8h39q-2 2 8 2q27 -6 82 -12q61 8 184 20q21 -1 48 0q79 0 204 4q47 8 142 17q10 0 26.5 -5.5t24.5 -5.5q-2 0 -2 1q0 2 73 14q3 -20 3.5 -46t-3.5 -57q-8 -90 -8 -104q-2 -37 -4 -109q2 -23 -14 -55q-31 -23 -60 -4 q-25 14 -24 57q0 4 4 70q0 25 -2 65q-4 49 -4 66q-59 3 -159 3q-50 0 -109 -1q-53 -10 -160 -23q-23 0 -56 5q6 -12 7 -27v-25q4 -6 0 -45q-4 -6 -9 -18q-4 -20 -4 -45q0 -16 4 -47q10 -55 11 -312q6 -4 12 -4q8 4 27 15q8 -1 17 -1q29 0 75 9q20 10 16 10q4 0 9 -6t10 -4 q4 6 14 14q6 2 18.5 -5t17.5 -7t21 -2q-6 14 -6 22q0 12 7 30.5t7 29.5q-6 16 -4 49q10 12 49 14q43 2 43 -8t5 -18q4 -2 -7 -17q-6 -6 -6 -14q0 -6 6 -19l9 -16q-1 -12 -2 -26q0 -37 8 -93q10 -29 10 -22l-12 -19q8 -10 14 -30l-12 -37q0 -16 -6 -49q-4 -8 -39 -11 q-35 -2 -54 9q-8 4 -4 20q4 23 4 27q-3 23 -2 50v27q-29 2 -24 5q-20 -3 -45 -3.5t-53 3.5q-12 0 -31 -9.5t-27 -11.5q-8 0 -23.5 6t-23.5 6q-4 2 -12 -2q12 -90 12 -110q-6 -18 -12 -58q0 -12 7 -35.5t7 -31.5q1 -10 1 -21q0 -22 -3 -51q-8 -57 -9 -66.5t-3 -99.5 q0 -20 -2 -44.5t-15 -35.5q37 4 60 4q20 0 112 -4q68 -2 111 -2q16 2 50 8.5t52 4.5q10 0 34 -7.5t38 -5.5q12 6 39 13q0 27 8 69q8 51 10 70v49q0 31 11.5 44t34.5 17q23 2 34 -10q23 -16 23 -61q0 -29 -4 -88q-2 -70 -4 -207q-45 0 -160 8q-104 6 -162 6q-43 -6 -131 -14 h-9q-37 0 -147 12q-7 1 -44.5 1t-104.5 -1h-12q-62 0 -82 21q-10 10 -11 32q0 41 25 47q18 -2 53 0q-4 0 6 0q25 -6 76 -14q16 0 37 2q-25 14 -27 55q2 39 5 115q-3 66 -3 150q0 111 5 254q0 41 -10.5 117.5t-10.5 113.5q0 33 6 93.5t6 88.5q-4 39 -6 121q2 47 19 64 q-37 -5 -98 -6q-30 0 -66 2q-27 6 -37 22zM170 1454q-2 16 18.5 29.5t39.5 24.5q51 39 172 110q27 -10 80 -37q20 -23 65 -67q20 -10 42 -23.5t22 -34.5q0 -47 -45 -65q2 0 -25 10v-2l-3 5q-3 5 -7 13q-6 18 -27 23q-27 4 -55 29q-25 18 -49 39q-14 -18 -45 -50q-8 2 -21 3 q-4 -10 -16 -29q-14 -4 -45 -15q-12 -8 -27.5 -17t-28.5 -7q-8 2 -25.5 24.5t-19.5 36.5z" />
<glyph unicode="&#xcb;" horiz-adv-x="903" d="M-70 1198q-11 19 -11 34q0 20 19 32q12 8 35 8h39q-2 2 8 2q27 -6 82 -12q61 8 184 20q21 -1 48 0q79 0 204 4q47 8 142 17q10 0 26.5 -5.5t24.5 -5.5q-2 0 -2 1q0 2 73 14q3 -20 3.5 -46t-3.5 -57q-8 -90 -8 -104q-2 -37 -4 -109q2 -23 -14 -55q-31 -23 -60 -4 q-25 14 -24 57q0 4 4 70q0 25 -2 65q-4 49 -4 66q-59 3 -159 3q-50 0 -109 -1q-53 -10 -160 -23q-23 0 -56 5q6 -12 7 -27v-25q4 -6 0 -45q-4 -6 -9 -18q-4 -20 -4 -45q0 -16 4 -47q10 -55 11 -312q6 -4 12 -4q8 4 27 15q8 -1 17 -1q29 0 75 9q20 10 16 10q4 0 9 -6t10 -4 q4 6 14 14q6 2 18.5 -5t17.5 -7t21 -2q-6 14 -6 22q0 12 7 30.5t7 29.5q-6 16 -4 49q10 12 49 14q43 2 43 -8t5 -18q4 -2 -7 -17q-6 -6 -6 -14q0 -6 6 -19l9 -16q-1 -12 -2 -26q0 -37 8 -93q10 -29 10 -22l-12 -19q8 -10 14 -30l-12 -37q0 -16 -6 -49q-4 -8 -39 -11 q-35 -2 -54 9q-8 4 -4 20q4 23 4 27q-3 23 -2 50v27q-29 2 -24 5q-20 -3 -45 -3.5t-53 3.5q-12 0 -31 -9.5t-27 -11.5q-8 0 -23.5 6t-23.5 6q-4 2 -12 -2q12 -90 12 -110q-6 -18 -12 -58q0 -12 7 -35.5t7 -31.5q1 -10 1 -21q0 -22 -3 -51q-8 -57 -9 -66.5t-3 -99.5 q0 -20 -2 -44.5t-15 -35.5q37 4 60 4q20 0 112 -4q68 -2 111 -2q16 2 50 8.5t52 4.5q10 0 34 -7.5t38 -5.5q12 6 39 13q0 27 8 69q8 51 10 70v49q0 31 11.5 44t34.5 17q23 2 34 -10q23 -16 23 -61q0 -29 -4 -88q-2 -70 -4 -207q-45 0 -160 8q-104 6 -162 6q-43 -6 -131 -14 h-9q-37 0 -147 12q-7 1 -44.5 1t-104.5 -1h-12q-62 0 -82 21q-10 10 -11 32q0 41 25 47q18 -2 53 0q-4 0 6 0q25 -6 76 -14q16 0 37 2q-25 14 -27 55q2 39 5 115q-3 66 -3 150q0 111 5 254q0 41 -10.5 117.5t-10.5 113.5q0 33 6 93.5t6 88.5q-4 39 -6 121q2 47 19 64 q-37 -5 -98 -6q-30 0 -66 2q-27 6 -37 22zM219 1456q4 27 31 48.5t53 21.5q35 0 50 -15q6 -16 21 -41.5t1 -35.5q-10 -18 -33 -47q-14 -12 -41 -2q-82 32 -82 71zM424 1456q4 27 31 48.5t53 21.5q35 0 49 -15q6 -16 21.5 -41.5t1.5 -35.5q-10 -18 -33 -47q-14 -12 -41 -2 q-82 32 -82 71z" />
<glyph unicode="&#xcc;" horiz-adv-x="452" d="M12 25q0 14 8 41q10 0 25 6q0 2 14 -11q6 -4 14 -6q8 0 20.5 5.5t18.5 7.5q12 2 56 -5q-12 18 -15 43q4 39 8 115v40q0 143 13 357v18q0 39 -6 100q-8 77 -9 112q8 59 19 180q-4 39 -4 121q4 39 16 68h-4q-6 4 -20 12q-10 -8 -33 -15q-14 6 -43 13q-18 0 -56 8 q-10 4 -12 31q-4 43 10 61q6 8 25 4q25 -4 29 -4q18 1 37 1q48 0 108 -7q29 10 84 18q23 -6 66 -14q20 6 55 2q16 -10 16 -49q1 -8 1 -14q0 -19 -5 -26q-6 -9 -16 -9q-8 0 -21 2q-4 6 -24 12q-8 0 -21.5 -6t-17.5 -6q-3 -1 -21.5 -1t-52.5 1h-4q4 -14 6 -55q0 -6 -2 -25 q2 -4 -8 -61q-6 -23 -6 -46q0 -16 2 -45q9 -58 8 -141v-35q-6 -186 -6 -174q0 -25 7 -76q6 -40 6 -66q0 -7 -1 -13q-4 -18 -12 -58q-2 -12 4 -33q8 -27 8 -34q1 -7 1 -15q0 -23 -5 -55q-10 -57 -11 -65.5t-5 -98.5q0 -23 -9 -65q10 4 13 4q6 -6 18 -15q10 8 31 13 q12 -6 39 -15q16 -2 49 -10q10 -6 10 -41q-2 -35 -12 -51q-4 -5 -13 -6q-4 0 -10 2q-25 6 -26 6q-57 0 -133 12q-27 -6 -78 -12q-20 8 -60 18q-18 -6 -51 0q-12 11 -12 50zM28 1779q4 33 64 47q16 4 22 -2q0 -8 9 -18q4 0 4 -8l-4 -8q-2 -10 5 -19.5t23.5 -28t32.5 -61.5 t33 -61q10 -6 20 -19q-2 -8 0 -24q10 -6 27 -23q0 -16 6 -45q8 -16 16 -53q2 -10 -22 -25q-35 -20 -59 -16q-10 0 -15 18q-6 27 -8 29q-31 55 -59 133q-20 23 -52 70q-4 23 -16 65q-2 6 -14.5 22.5t-12.5 26.5z" />
<glyph unicode="&#xcd;" horiz-adv-x="452" d="M12 25q0 14 8 41q10 0 25 6q0 2 14 -11q6 -4 14 -6q8 0 20.5 5.5t18.5 7.5q12 2 56 -5q-12 18 -15 43q4 39 8 115v40q0 143 13 357v18q0 39 -6 100q-8 77 -9 112q8 59 19 180q-4 39 -4 121q4 39 16 68h-4q-6 4 -20 12q-10 -8 -33 -15q-14 6 -43 13q-18 0 -56 8 q-10 4 -12 31q-4 43 10 61q6 8 25 4q25 -4 29 -4q18 1 37 1q48 0 108 -7q29 10 84 18q23 -6 66 -14q20 6 55 2q16 -10 16 -49q1 -8 1 -14q0 -19 -5 -26q-6 -9 -16 -9q-8 0 -21 2q-4 6 -24 12q-8 0 -21.5 -6t-17.5 -6q-3 -1 -21.5 -1t-52.5 1h-4q4 -14 6 -55q0 -6 -2 -25 q2 -4 -8 -61q-6 -23 -6 -46q0 -16 2 -45q9 -58 8 -141v-35q-6 -186 -6 -174q0 -25 7 -76q6 -40 6 -66q0 -7 -1 -13q-4 -18 -12 -58q-2 -12 4 -33q8 -27 8 -34q1 -7 1 -15q0 -23 -5 -55q-10 -57 -11 -65.5t-5 -98.5q0 -23 -9 -65q10 4 13 4q6 -6 18 -15q10 8 31 13 q12 -6 39 -15q16 -2 49 -10q10 -6 10 -41q-2 -35 -12 -51q-4 -5 -13 -6q-4 0 -10 2q-25 6 -26 6q-57 0 -133 12q-27 -6 -78 -12q-20 8 -60 18q-18 -6 -51 0q-12 11 -12 50zM188 1446q6 18 17 53q2 14 8 46q10 6 27 22q-2 8 -2 25q8 8 20 18q16 18 33.5 61.5t30.5 59.5 q10 10 22 21.5t10 27.5q-2 2 -4 8q-2 8 2 11.5t10 15.5q6 6 21 2q61 -14 63 -47q2 -10 -10 -26.5t-16 -22.5q-2 -23 -15 -66q-23 -20 -53 -70q-29 -78 -59 -133q-2 -23 -23 -47q-23 -4 -59 17q-23 14 -23 24z" />
<glyph unicode="&#xce;" horiz-adv-x="452" d="M12 25q0 14 8 41q10 0 25 6q0 2 14 -11q6 -4 14 -6q8 0 20.5 5.5t18.5 7.5q12 2 56 -5q-12 18 -15 43q4 39 8 115v40q0 143 13 357v18q0 39 -6 100q-8 77 -9 112q8 59 19 180q-4 39 -4 121q4 39 16 68h-4q-6 4 -20 12q-10 -8 -33 -15q-14 6 -43 13q-18 0 -56 8 q-10 4 -12 31q-4 43 10 61q6 8 25 4q25 -4 29 -4q18 1 37 1q48 0 108 -7q29 10 84 18q23 -6 66 -14q20 6 55 2q16 -10 16 -49q1 -8 1 -14q0 -19 -5 -26q-6 -9 -16 -9q-8 0 -21 2q-4 6 -24 12q-8 0 -21.5 -6t-17.5 -6q-3 -1 -21.5 -1t-52.5 1h-4q4 -14 6 -55q0 -6 -2 -25 q2 -4 -8 -61q-6 -23 -6 -46q0 -16 2 -45q9 -58 8 -141v-35q-6 -186 -6 -174q0 -25 7 -76q6 -40 6 -66q0 -7 -1 -13q-4 -18 -12 -58q-2 -12 4 -33q8 -27 8 -34q1 -7 1 -15q0 -23 -5 -55q-10 -57 -11 -65.5t-5 -98.5q0 -23 -9 -65q10 4 13 4q6 -6 18 -15q10 8 31 13 q12 -6 39 -15q16 -2 49 -10q10 -6 10 -41q-2 -35 -12 -51q-4 -5 -13 -6q-4 0 -10 2q-25 6 -26 6q-57 0 -133 12q-27 -6 -78 -12q-20 8 -60 18q-18 -6 -51 0q-12 11 -12 50zM14 1482q-2 16 18.5 29.5t39.5 24.5q51 39 172 110q27 -10 80 -37q20 -23 65 -67q20 -10 42 -23.5 t22 -34.5q0 -47 -45 -65q2 0 -25 10v-2l-3 5q-3 5 -7 13q-6 18 -27 23q-27 4 -55 29q-25 18 -49 39q-14 -18 -45 -50q-8 2 -21 3q-4 -10 -16 -29q-14 -4 -45 -15q-12 -8 -27.5 -17t-28.5 -7q-8 2 -25.5 24.5t-19.5 36.5z" />
<glyph unicode="&#xcf;" horiz-adv-x="452" d="M12 25q0 14 8 41q10 0 25 6q0 2 14 -11q6 -4 14 -6q8 0 20.5 5.5t18.5 7.5q12 2 56 -5q-12 18 -15 43q4 39 8 115v40q0 143 13 357v18q0 39 -6 100q-8 77 -9 112q8 59 19 180q-4 39 -4 121q4 39 16 68h-4q-6 4 -20 12q-10 -8 -33 -15q-14 6 -43 13q-18 0 -56 8 q-10 4 -12 31q-4 43 10 61q6 8 25 4q25 -4 29 -4q18 1 37 1q48 0 108 -7q29 10 84 18q23 -6 66 -14q20 6 55 2q16 -10 16 -49q1 -8 1 -14q0 -19 -5 -26q-6 -9 -16 -9q-8 0 -21 2q-4 6 -24 12q-8 0 -21.5 -6t-17.5 -6q-3 -1 -21.5 -1t-52.5 1h-4q4 -14 6 -55q0 -6 -2 -25 q2 -4 -8 -61q-6 -23 -6 -46q0 -16 2 -45q9 -58 8 -141v-35q-6 -186 -6 -174q0 -25 7 -76q6 -40 6 -66q0 -7 -1 -13q-4 -18 -12 -58q-2 -12 4 -33q8 -27 8 -34q1 -7 1 -15q0 -23 -5 -55q-10 -57 -11 -65.5t-5 -98.5q0 -23 -9 -65q10 4 13 4q6 -6 18 -15q10 8 31 13 q12 -6 39 -15q16 -2 49 -10q10 -6 10 -41q-2 -35 -12 -51q-4 -5 -13 -6q-4 0 -10 2q-25 6 -26 6q-57 0 -133 12q-27 -6 -78 -12q-20 8 -60 18q-18 -6 -51 0q-12 11 -12 50zM51 1505q4 27 31 48.5t53 21.5q35 0 50 -15q6 -16 21 -41.5t1 -35.5q-10 -18 -33 -47 q-14 -12 -41 -2q-82 32 -82 71zM256 1505q4 27 31 48.5t53 21.5q35 0 49 -15q6 -16 21.5 -41.5t1.5 -35.5q-10 -18 -33 -47q-14 -12 -41 -2q-82 32 -82 71z" />
<glyph unicode="&#xd0;" horiz-adv-x="958" d="M-86 -31q10 16 47 21h53q27 -4 82 -8q-10 18 -10 38q6 39 10 115q2 150 21 379q-12 -4 -23 -4q-27 8 -80 16q-27 -6 -71 2q-35 29 -11 82q6 10 17 13q8 -4 18 -2q2 2 18.5 -7.5t32.5 -5.5q16 6 54 13q18 2 47 0q-6 129 -6 147q8 61 22 182q-2 41 0 121q6 61 19 86l-35 2 q-35 2 -107 10q-59 8 -67 43q-4 23 12 33q31 16 80 17q51 2 190 -11q68 -2 201 -10q98 -10 188.5 -64.5t141.5 -134.5q78 -121 98 -258q18 -121 4 -264q-31 -340 -164 -487q-78 -84 -186 -125q-100 -39 -240 -35q-78 2 -233 14q-51 6 -83 17.5t-40 27.5q-10 23 0 37z M176 -25q33 -8 100 -18q178 -16 323.5 134.5t172.5 436.5q6 80 -4 177q-4 31 -39 141q-10 47 -49 131q-18 27 -82 76q-96 74 -174 84q-53 6 -193 14q6 -23 5 -55q0 -6 -3 -25q2 -4 -10 -61q-6 -20 -6 -45q-2 -16 2 -47q8 -66 -6 -297l8 2q41 8 31 8l24 -13q14 8 41 15 q16 -6 52 -15q23 0 65 -8q12 -4 15 -32q4 -55 -19 -64q-18 2 -59 4q-70 -2 -158 6q6 -102 6 -116q-6 -18 -14 -58q-2 -12 4 -35.5t6 -33.5q2 -27 -6 -68q-10 -59 -11 -67.5t-10 -98.5q0 -27 -12 -72z" />
<glyph unicode="&#xd1;" horiz-adv-x="1007" d="M-9 1229q10 20 48 24q33 -2 96 -4h12q35 -6 105 -16q45 -80 133 -240q53 -113 163 -334q33 -49 93 -155q10 -35 39 -103q23 -29 61 -92q8 -16 18 -41q-2 67 -2 150t2 182q0 41 -11 120t-11 116q-1 8 -1 17q0 29 5 76q6 62 6 89q0 20 -5 61t-5 64q2 47 12 71q-6 4 -14 11 q-10 -8 -29 -15l-39 13q-16 0 -47 6q-10 4 -12 39t8 53q4 8 21 4q23 -4 24 -4q28 3 60 3t69 -3q12 -2 37 8t35 10t29.5 -6t27.5 -6q18 6 49 4q14 -10 17 -49q2 -45 -19 -45q-4 0 -10 -4q-4 -2 -8 0q-16 12 -21 12q-6 0 -18 -6l-16 -8h-62h-4q8 -20 10 -57v-25q6 -4 2 -45 q-4 -6 -8 -19q-4 -23 -4 -47q0 -16 6 -45q12 -72 14 -178q0 -90 3 -180q8 -53 18 -158q0 -10 -5 -30.5t-5 -28.5q-2 -14 5 -37t9 -33q1 -9 1 -19q0 -21 -3 -50q-6 -59 -7 -69.5t-3 -100.5q2 -18 0 -54q25 0 74 -2q23 0 59 -12q12 -10 18 -29q1 -6 2 -11q0 -10 -6 -17 q-23 -27 -88 -29q-14 -1 -34 -1q-39 0 -99 3q-59 119 -176 360q-51 111 -158 332q-43 68 -123 207q-18 39 -59 139q6 -37 29 -383q10 -53 22 -159q0 -10 -4 -31t-6 -29q0 -14 8 -35q8 -27 8 -34q2 -14 2 -32.5t-2 -39.5q-6 -59 -6 -72q0 -8 2 -100q0 -53 -4 -66q6 4 12 0 q8 -6 11 -8q8 8 26 17q10 -4 35 -11q14 0 43 -6q10 -4 14 -37q2 -37 -6 -53q-2 -8 -18 -6q-20 2 -23 2q-31 -4 -66 -4q-24 0 -50 2q-12 0 -35 -11.5t-33 -11.5t-27.5 5.5t-25.5 5.5q-16 -6 -43 -4q-14 8 -19 47q-2 29 2 41q8 0 21 8q4 4 8 0q16 -12 21 -10q10 4 30 14 q12 4 45 4q-16 18 -18 47q1 19 1 49t-1 70q-12 156 -14 411q0 41 -12.5 121t-14.5 117q4 61 6 186q0 18 -6 60.5t-6 64.5q0 12 2 27q-31 -1 -55 -1t-41 1q-55 6 -78 23q-18 14 -19 32q0 11 6 23zM206 1503q0 2 23 29q-2 0 8 6h14q16 0 31 10q39 29 74 29q27 0 76 -34t77 -32 q8 -10 23 -12q6 8 25.5 8t23.5 2q16 14 51 27q8 0 33 -16l10 -7l9 -8q23 -16 10 -37q-8 -16 -35 -30q-86 -47 -133 -43q-43 2 -80 28q-18 16 -57 43q-12 -2 -39 2q-23 12 -35 4t-26.5 -18t-24.5 -8q-54 18 -58 57z" />
<glyph unicode="&#xd2;" d="M32 688q0 246 93 381q31 51 106 139q66 55 145 56q100 0 185 -80q113 -109 168 -310q20 -76 26 -149v-23q0 -43 5.5 -110t5.5 -88q0 -9 -15 -117q0 -4 -2 -14q-10 -51 -59 -154q-63 -131 -127 -186.5t-137 -57.5h-11q-135 0 -237 146q-146 207 -146 567zM125 604 q8 -221 118 -387q92 -135 181 -139h6q68 0 129 78q57 72 92 243q8 45 22 133q2 6 2 21q0 22 -4 64q-6 71 -10 88q-8 53 -33 155q-43 145 -116 223q-62 66 -129 66h-5q-102 -4 -181 -165q-73 -149 -73 -348q1 -16 1 -32zM217 1695q4 33 64 47q16 4 22 -2q0 -8 9 -18q4 0 4 -8 l-4 -8q-2 -10 5 -19.5t23.5 -28t32.5 -61.5t33 -61q10 -6 20 -19q-2 -8 0 -24q10 -6 27 -23q0 -16 6 -45q8 -16 16 -53q2 -10 -22 -25q-35 -20 -59 -16q-10 0 -15 18q-6 27 -8 29q-31 55 -59 133q-20 23 -52 70q-4 23 -16 65q-2 6 -14.5 22.5t-12.5 26.5z" />
<glyph unicode="&#xd3;" d="M32 688q0 246 93 381q31 51 106 139q66 55 145 56q100 0 185 -80q113 -109 168 -310q20 -76 26 -149v-23q0 -43 5.5 -110t5.5 -88q0 -9 -15 -117q0 -4 -2 -14q-10 -51 -59 -154q-63 -131 -127 -186.5t-137 -57.5h-11q-135 0 -237 146q-146 207 -146 567zM125 604 q8 -221 118 -387q92 -135 181 -139h6q68 0 129 78q57 72 92 243q8 45 22 133q2 6 2 21q0 22 -4 64q-6 71 -10 88q-8 53 -33 155q-43 145 -116 223q-62 66 -129 66h-5q-102 -4 -181 -165q-73 -149 -73 -348q1 -16 1 -32zM321 1397q6 18 17 53q2 14 8 46q10 6 27 22 q-2 8 -2 25q8 8 20 18q16 18 33.5 61.5t30.5 59.5q10 10 22 21.5t10 27.5q-2 2 -4 8q-2 8 2 11.5t10 15.5q6 6 21 2q61 -14 63 -47q2 -10 -10 -26.5t-16 -22.5q-2 -23 -15 -66q-23 -20 -53 -70q-29 -78 -59 -133q-2 -23 -23 -47q-23 -4 -59 17q-23 14 -23 24z" />
<glyph unicode="&#xd4;" d="M32 688q0 246 93 381q31 51 106 139q66 55 145 56q100 0 185 -80q113 -109 168 -310q20 -76 26 -149v-23q0 -43 5.5 -110t5.5 -88q0 -9 -15 -117q0 -4 -2 -14q-10 -51 -59 -154q-63 -131 -127 -186.5t-137 -57.5h-11q-135 0 -237 146q-146 207 -146 567zM125 604 q8 -221 118 -387q92 -135 181 -139h6q68 0 129 78q57 72 92 243q8 45 22 133q2 6 2 21q0 22 -4 64q-6 71 -10 88q-8 53 -33 155q-43 145 -116 223q-62 66 -129 66h-5q-102 -4 -181 -165q-73 -149 -73 -348q1 -16 1 -32zM151 1423q-2 16 18.5 29.5t39.5 24.5q51 39 172 110 q27 -10 80 -37q20 -23 65 -67q20 -10 42 -23.5t22 -34.5q0 -47 -45 -65q2 0 -25 10v-2l-3 5q-3 5 -7 13q-6 18 -27 23q-27 4 -55 29q-25 18 -49 39q-14 -18 -45 -50q-8 2 -21 3q-4 -10 -16 -29q-14 -4 -45 -15q-12 -8 -27.5 -17t-28.5 -7q-8 2 -25.5 24.5t-19.5 36.5z" />
<glyph unicode="&#xd5;" d="M16 688q0 246 93 381q31 51 106 139q66 55 145 56q100 0 185 -80q113 -109 168 -310q20 -76 26 -149v-23q0 -43 5.5 -110t5.5 -88q0 -9 -15 -117q0 -4 -2 -14q-10 -51 -59 -154q-63 -131 -127 -186.5t-137 -57.5h-11q-135 0 -237 146q-146 207 -146 567zM109 604 q8 -221 118 -387q92 -135 181 -139h6q68 0 129 78q57 72 92 243q8 45 22 133q2 6 2 21q0 22 -4 64q-6 71 -10 88q-8 53 -33 155q-43 145 -116 223q-62 66 -129 66h-5q-102 -4 -181 -165q-73 -149 -73 -348q1 -16 1 -32zM145 1503q0 2 23 29q-2 0 8 6h14q16 0 31 10 q39 29 74 29q27 0 76 -34t77 -32q8 -10 23 -12q6 8 25.5 8t23.5 2q16 14 51 27q8 0 33 -16l10 -7l9 -8q23 -16 10 -37q-8 -16 -35 -30q-86 -47 -133 -43q-43 2 -80 28q-18 16 -57 43q-12 -2 -39 2q-23 12 -35 4t-26.5 -18t-24.5 -8q-54 18 -58 57z" />
<glyph unicode="&#xd6;" d="M32 688q0 246 93 381q31 51 106 139q66 55 145 56q100 0 185 -80q113 -109 168 -310q20 -76 26 -149v-23q0 -43 5.5 -110t5.5 -88q0 -9 -15 -117q0 -4 -2 -14q-10 -51 -59 -154q-63 -131 -127 -186.5t-137 -57.5h-11q-135 0 -237 146q-146 207 -146 567zM125 604 q8 -221 118 -387q92 -135 181 -139h6q68 0 129 78q57 72 92 243q8 45 22 133q2 6 2 21q0 22 -4 64q-6 71 -10 88q-8 53 -33 155q-43 145 -116 223q-62 66 -129 66h-5q-102 -4 -181 -165q-73 -149 -73 -348q1 -16 1 -32zM200 1440q4 27 31 48.5t53 21.5q35 0 50 -15 q6 -16 21 -41.5t1 -35.5q-10 -18 -33 -47q-14 -12 -41 -2q-82 32 -82 71zM405 1440q4 27 31 48.5t53 21.5q35 0 49 -15q6 -16 21.5 -41.5t1.5 -35.5q-10 -18 -33 -47q-14 -12 -41 -2q-82 32 -82 71z" />
<glyph unicode="&#xd7;" horiz-adv-x="495" d="M16 346q-4 12 6.5 23.5t10.5 9.5q-2 8 14 8h6q18 4 31 27q20 35 22 39q10 10 54 47q-10 4 -23 12q-2 8 -10 25q-14 4 -39 18q-8 16 -27 45q-16 16 -43 51q-6 12 13 33q25 33 49 35q10 2 26 -17q10 -14 21 -26q45 -41 96 -96v2q10 4 31 14q4 14 18 39q16 6 45 24 q16 16 54 41q12 6 32 -12q33 -27 35 -51q0 -10 -20 -25q-12 -10 -27 -20q-37 -39 -86 -82q20 -10 29 -21q14 -23 47 -65q25 -12 51 -51q6 -43 -49 -66q-10 -4 -23 6l-12 11l-6 18q-6 18 -29 31q-35 18 -39 22q-14 12 -41 41q-10 -16 -32 -47q-25 -12 -68 -45 q-14 -23 -53 -49q-44 -4 -64 51z" />
<glyph unicode="&#xd8;" d="M16 688q0 246 93 381q31 51 106 139q66 55 145 56q70 0 138 -43q20 78 53 86q33 10 55 -17q12 -16 4 -55q-2 -6 -5 -25.5t-23 -62.5l-2 -2q137 -164 159 -420q-2 -47 5.5 -133t5.5 -96q0 -4 -15 -109q0 -4 -2 -14q-10 -51 -59 -154q-63 -131 -127 -186.5t-137 -57.5 q-61 -2 -127 35q-8 -31 -19 -47q-20 -27 -61 -6q-33 18 -19 82q4 18 11 41q-158 170 -177 520q-2 47 -2 88zM109 604q8 -223 118 -387l6 -8q39 162 117 416q14 45 28.5 137t24.5 133q25 66 68 201l4 8q-57 47 -113 45q-102 -4 -180.5 -165t-72.5 -380zM315 117 q45 -37 93 -39q72 -4 135 78q57 72 92 243q8 45 22 133q4 14 -2 85t-10 88q-8 53 -33 155q-29 94 -67 158q-10 -78 -43 -195q-51 -186 -53 -192q-8 -61 -33 -182q-10 -20 -29 -64q-2 -29 -8 -82q-6 -37 -29 -94q-29 -72 -35 -92z" />
<glyph unicode="&#xd9;" horiz-adv-x="839" d="M-29 1180v14q0 26 6 39q2 6 16 4q18 -2 23 -2q18 2 39 2q31 0 67 -4q10 -2 31 8t31 10q2 0 4 1q8 0 19 -6q15 -7 24 -7q14 6 41 4q10 -8 14 -47q0 -31 -4 -43q-8 0 -18 -6q-2 -4 -10.5 4t-14.5 8t-16 -6t-12 -8q-12 -4 -35 -2q6 -23 8 -45.5t2 -44.5q0 -12 -2 -42t-2 -46 v-11q-6 -43 -16 -131q-2 -31 -2.5 -69t2.5 -84q6 -147 6 -152q6 -225 43 -332q29 -80 75 -112q34 -27 76 -27h6q63 0 103 41q14 16 61 113q16 35 37 104q4 84 4 205q0 47 6 129q8 90 8 127l7 192q0 27 4 82q-4 0 -9.5 6.5t-9.5 6.5q-4 -6 -14 -15q-8 -2 -18 4q-16 8 -19 9 q-14 2 -41 8q-8 6 -8 41q-2 35 8 51q2 8 17 4q18 -4 22 -4q13 1 27 1q36 0 80 -7q18 8 61 16q14 -6 47 -14q14 6 41 2q10 -10 12 -49q0 -29 -6 -41q-8 0 -18 -6q-4 -4 -13 8q-6 4 -12 4q-6 2 -16 -4t-12 -8q-12 -2 -33 0q8 -25 8 -64q1 -23 1 -57.5t-1 -81.5q-4 -92 -4 -342 q0 -289 -101 -438q-35 -51 -96 -84q-58 -31 -115 -31h-8q-127 4 -209 125q-96 146 -96 370q0 33 2 68q6 125 13 412q0 76 8 127q2 25 8 73l-2 -2q-2 -2 -4 -2t-8.5 6.5t-10.5 4.5q-4 -4 -14 -13q-6 -4 -19.5 3.5t-17.5 7.5q-14 0 -41 6q-8 4 -10 39zM221 1652q4 33 64 47 q16 4 22 -2q0 -8 9 -18q4 0 4 -8l-4 -8q-2 -10 5 -19.5t23.5 -28t32.5 -61.5t33 -61q10 -6 20 -19q-2 -8 0 -24q10 -6 27 -23q0 -16 6 -45q8 -16 16 -53q2 -10 -22 -25q-35 -20 -59 -16q-10 0 -15 18q-6 27 -8 29q-31 55 -59 133q-20 23 -52 70q-4 23 -16 65 q-2 6 -14.5 22.5t-12.5 26.5z" />
<glyph unicode="&#xda;" d="M32 688q0 246 93 381q31 51 106 139q66 55 145 56q100 0 185 -80q113 -109 168 -310q20 -76 26 -149v-23q0 -43 5.5 -110t5.5 -88q0 -9 -15 -117q0 -4 -2 -14q-10 -51 -59 -154q-63 -131 -127 -186.5t-137 -57.5h-11q-135 0 -237 146q-146 207 -146 567zM125 604 q8 -221 118 -387q92 -135 181 -139h6q68 0 129 78q57 72 92 243q8 45 22 133q2 6 2 21q0 22 -4 64q-6 71 -10 88q-8 53 -33 155q-43 145 -116 223q-62 66 -129 66h-5q-102 -4 -181 -165q-73 -149 -73 -348q1 -16 1 -32zM321 1397q6 18 17 53q2 14 8 46q10 6 27 22 q-2 8 -2 25q8 8 20 18q16 18 33.5 61.5t30.5 59.5q10 10 22 21.5t10 27.5q-2 2 -4 8q-2 8 2 11.5t10 15.5q6 6 21 2q61 -14 63 -47q2 -10 -10 -26.5t-16 -22.5q-2 -23 -15 -66q-23 -20 -53 -70q-29 -78 -59 -133q-2 -23 -23 -47q-23 -4 -59 17q-23 14 -23 24z" />
<glyph unicode="&#xdb;" horiz-adv-x="839" d="M-29 1180v14q0 26 6 39q2 6 16 4q18 -2 23 -2q18 2 39 2q31 0 67 -4q10 -2 31 8t31 10q2 0 4 1q8 0 19 -6q15 -7 24 -7q14 6 41 4q10 -8 14 -47q0 -31 -4 -43q-8 0 -18 -6q-2 -4 -10.5 4t-14.5 8t-16 -6t-12 -8q-12 -4 -35 -2q6 -23 8 -45.5t2 -44.5q0 -12 -2 -42t-2 -46 v-11q-6 -43 -16 -131q-2 -31 -2.5 -69t2.5 -84q6 -147 6 -152q6 -225 43 -332q29 -80 75 -112q34 -27 76 -27h6q63 0 103 41q14 16 61 113q16 35 37 104q4 84 4 205q0 47 6 129q8 90 8 127l7 192q0 27 4 82q-4 0 -9.5 6.5t-9.5 6.5q-4 -6 -14 -15q-8 -2 -18 4q-16 8 -19 9 q-14 2 -41 8q-8 6 -8 41q-2 35 8 51q2 8 17 4q18 -4 22 -4q13 1 27 1q36 0 80 -7q18 8 61 16q14 -6 47 -14q14 6 41 2q10 -10 12 -49q0 -29 -6 -41q-8 0 -18 -6q-4 -4 -13 8q-6 4 -12 4q-6 2 -16 -4t-12 -8q-12 -2 -33 0q8 -25 8 -64q1 -23 1 -57.5t-1 -81.5q-4 -92 -4 -342 q0 -289 -101 -438q-35 -51 -96 -84q-58 -31 -115 -31h-8q-127 4 -209 125q-96 146 -96 370q0 33 2 68q6 125 13 412q0 76 8 127q2 25 8 73l-2 -2q-2 -2 -4 -2t-8.5 6.5t-10.5 4.5q-4 -4 -14 -13q-6 -4 -19.5 3.5t-17.5 7.5q-14 0 -41 6q-8 4 -10 39zM180 1411 q-2 16 18.5 29.5t39.5 24.5q51 39 172 110q27 -10 80 -37q20 -23 65 -67q20 -10 42 -23.5t22 -34.5q0 -47 -45 -65q2 0 -25 10v-2l-3 5q-3 5 -7 13q-6 18 -27 23q-27 4 -55 29q-25 18 -49 39q-14 -18 -45 -50q-8 2 -21 3q-4 -10 -16 -29q-14 -4 -45 -15q-12 -8 -27.5 -17 t-28.5 -7q-8 2 -25.5 24.5t-19.5 36.5z" />
<glyph unicode="&#xdc;" horiz-adv-x="839" d="M-29 1180v14q0 26 6 39q2 6 16 4q18 -2 23 -2q18 2 39 2q31 0 67 -4q10 -2 31 8t31 10q2 0 4 1q8 0 19 -6q15 -7 24 -7q14 6 41 4q10 -8 14 -47q0 -31 -4 -43q-8 0 -18 -6q-2 -4 -10.5 4t-14.5 8t-16 -6t-12 -8q-12 -4 -35 -2q6 -23 8 -45.5t2 -44.5q0 -12 -2 -42t-2 -46 v-11q-6 -43 -16 -131q-2 -31 -2.5 -69t2.5 -84q6 -147 6 -152q6 -225 43 -332q29 -80 75 -112q34 -27 76 -27h6q63 0 103 41q14 16 61 113q16 35 37 104q4 84 4 205q0 47 6 129q8 90 8 127l7 192q0 27 4 82q-4 0 -9.5 6.5t-9.5 6.5q-4 -6 -14 -15q-8 -2 -18 4q-16 8 -19 9 q-14 2 -41 8q-8 6 -8 41q-2 35 8 51q2 8 17 4q18 -4 22 -4q13 1 27 1q36 0 80 -7q18 8 61 16q14 -6 47 -14q14 6 41 2q10 -10 12 -49q0 -29 -6 -41q-8 0 -18 -6q-4 -4 -13 8q-6 4 -12 4q-6 2 -16 -4t-12 -8q-12 -2 -33 0q8 -25 8 -64q1 -23 1 -57.5t-1 -81.5q-4 -92 -4 -342 q0 -289 -101 -438q-35 -51 -96 -84q-58 -31 -115 -31h-8q-127 4 -209 125q-96 146 -96 370q0 33 2 68q6 125 13 412q0 76 8 127q2 25 8 73l-2 -2q-2 -2 -4 -2t-8.5 6.5t-10.5 4.5q-4 -4 -14 -13q-6 -4 -19.5 3.5t-17.5 7.5q-14 0 -41 6q-8 4 -10 39zM221 1440q4 27 31 48.5 t53 21.5q35 0 50 -15q6 -16 21 -41.5t1 -35.5q-10 -18 -33 -47q-14 -12 -41 -2q-82 32 -82 71zM426 1440q4 27 31 48.5t53 21.5q35 0 49 -15q6 -16 21.5 -41.5t1.5 -35.5q-10 -18 -33 -47q-14 -12 -41 -2q-82 32 -82 71z" />
<glyph unicode="&#xdd;" horiz-adv-x="757" d="M-70 1139q0 43 9 44t20 5q2 2 14 -8q6 -6 14 -6q6 0 18.5 6t16.5 6q4 2 62 0q37 6 77 14q6 -6 19 -12q8 8 29 14q12 -6 36 -14q16 0 47 -8q8 -4 11 -39q0 -37 -11 -54q-4 -8 -20 -4q-23 4 -25 4q-13 -1 -27 0q-28 0 -61 3q12 -25 45 -84q2 -4 9 -13q6 -14 8 -37 q6 -45 47 -108q33 -49 160 -326q41 86 65 152q8 33 31 94q12 14 33 43q4 8 18 66q12 41 45 98q53 88 58 96q18 39 59 121q-6 -2 -8 -2q-18 6 -58 16q-16 -6 -47 -2q-12 8 -14 47q0 43 9 44t20 5q2 2 14 -8q6 -6 14 -6t19.5 6t15.5 6q6 2 64 0q37 6 75 13q6 -4 19 -11 q10 6 28 13l37 -13q16 0 47 -8q10 -6 11 -39v-11q0 -28 -9 -42q-6 -8 -20 -4q-23 4 -27 4q-11 -1 -23 0q-36 0 -79 4q4 -14 2 -41q-2 -14 -14 -47q-27 -51 -75 -154.5t-144 -314.5q-43 -84 -127 -256q6 -4 -5 -12h-2l-6 -14v-5q0 -8 6.5 -20t6.5 -18q1 -3 1 -20t-1 -48 q8 -41 14 -86q-4 -6 -10 -21q6 -10 14 -30q-6 -14 -14 -41q0 -20 -9 -53q10 4 15 4q6 -4 20 -13q10 8 33 15q12 -6 41 -15q18 -2 53 -10q10 -4 13 -39q0 -37 -13 -53q-4 -5 -12 -6q-4 0 -10 2q-27 6 -29 6h-22q-55 0 -123 8q-27 -6 -84 -14q-20 8 -64 16q-20 -4 -55 0 q-14 10 -14 49q0 29 6 39.5t14 7.5q10 0 23 -2q4 -6 22 -12q8 0 21.5 5t19.5 7q10 0 66 -4q-6 4 -13.5 8.5t-3.5 20.5q6 27 4 29v24q0 51 6 115q2 14 -8 41t-10 39t7 32.5t7 30.5q-4 18 -2 54q-41 66 -80 161l-65 168q-47 82 -121 258q-12 31 -27 90q-18 -8 -28 -8 q-18 8 -58 17q-16 -6 -47 -2q-14 8 -14 47zM344 1267q6 18 17 53q2 14 8 46q10 6 27 22q-2 8 -2 25q8 8 20 18q16 18 33.5 61.5t30.5 59.5q10 10 22 21.5t10 27.5q-2 2 -4 8q-2 8 2 11.5t10 15.5q6 6 21 2q61 -14 63 -47q2 -10 -10 -26.5t-16 -22.5q-2 -23 -15 -66 q-23 -20 -53 -70q-29 -78 -59 -133q-2 -23 -23 -47q-23 -4 -59 17q-23 14 -23 24z" />
<glyph unicode="&#xde;" horiz-adv-x="899" d="M-45 1511q-20 59 8 78q8 8 27 6q25 -2 30 -2q20 10 66 23q10 0 28.5 -5t24.5 -5q16 -2 49 4q59 14 138 18q6 0 20 5t23 5q12 0 20 -14t8 -47q0 -27 -10 -33q-18 -4 -55 -14q-14 -6 -43 -17q-12 6 -35 11q-4 -2 -12.5 -9.5t-22.5 -3.5q6 -12 12 -67q2 -31 9 -94 q6 -27 12 -72q2 -27 -2 -68q70 6 209 17q201 8 309 -94q98 -94 115 -265q10 -119 -41 -202.5t-170 -128.5q-125 -47 -246 -58q-80 -6 -127 8q16 -84 18 -200q0 -4 2 -97q2 -57 -2 -67q10 4 13 4q6 -4 22 -10q10 6 33 12q14 -4 45 -12q20 0 57 -6q10 -4 13 -31 q4 -33 -2 -48.5t-19 -17.5q-14 2 -43 4q-80 -4 -139 2q-33 4 -49 0q-18 -8 -51 -16q-12 0 -36 7t-34 7q-20 -6 -57 -4q-29 16 -17 78q4 16 13 19q8 -2 20 0q0 2 16 -9q8 -4 17 -4q10 0 28.5 7.5t26.5 7.5q10 2 66 0q-14 16 -19 41q2 39 -2 114q-6 49 -14 230q-14 76 -33 227 q2 59 0 180q-6 39 -14 121q2 31 -8 180q-4 18 -11 150q-4 37 -10 114q0 25 12 43q-20 -4 -63 -8q-20 4 -58 8q-4 0 -22 -14q-6 -6 -10 -2q-6 -2 -19 -2q-10 2 -14 16zM246 1112q6 -18 10 -51v-25q0 -14 6 -20q2 -4 -2 -25q-4 -6 -6 -16t-2 -25q-2 -27 6 -65q12 -53 31 -312 q35 0 104 5q-6 0 19 2q23 0 34 -2q53 -12 125 16q119 47 172 123q47 63 45 149q0 117 -63 176q-27 25 -107 54q-23 10 -43 20q-27 10 -45 8q-23 -2 -65.5 -9t-108.5 -7q-112 4 -110 4z" />
<glyph unicode="&#xdf;" horiz-adv-x="899" d="M16 -96q6 88 23 270q18 248 59 741q18 190 106.5 279.5t229.5 87.5q180 -2 291 -129q98 -113 84 -285q-10 -119 -104 -200q-35 -33 -82 -56q61 -33 104 -75q113 -109 115 -287q2 -115 -64 -201q-53 -74 -147 -113.5t-187 -31.5q-33 4 -47 6q-25 8 -37 25.5t-4 29.5t33 19 q37 4 111 16q82 14 129 45q8 6 22 18q104 74 109 187q4 129 -88 211q-80 74 -201 96q-74 14 -154 10l5 90q86 0 149 9q86 14 163 67t85 144q12 133 -62 215q-86 94 -223 86q-121 -6 -178 -86q-49 -66 -49 -189q0 -106 -35 -397q-14 -125 -35 -346l-22 -271q-6 -63 -13 -94 q-10 -59 -41 -78q-18 -10 -27 3.5t-15.5 62.5t-2.5 121z" />
<glyph unicode="&#xe0;" horiz-adv-x="641" d="M32 133v15q0 98 52 147q27 14 77 47q27 23 82 57q63 18 125 39q78 29 105 72q-2 123 -64 195q-43 47 -112 47q-57 0 -80 -50q-8 -35 -27 -104q-10 -37 -41 -45q-25 -6 -39 10q-13 14 -12 54v12l6 49q2 4 2 12q6 27 41 68q72 90 180 90q104 0 162 -70q61 -78 74 -237 q6 -8 6 -37t-4 -37q8 -170 8 -166q0 -14 -8 -45t-8 -49q0 -10 6 -53q4 -35 2 -56l-25 -172l60 -8q29 0 80 -20q12 -10 14 -33q0 -23 -12 -33q-19 -15 -65 -15q-18 0 -40 3q-47 8 -145 20l4 58q4 31 8 96q-72 -74 -178 -74h-6q-104 0 -170 68q-54 57 -58 145zM124 123 q0 -44 33 -70q29 -20 103 -24q9 0 18 -1q96 0 127 42q16 37 49 108l15 197q-84 -35 -244 -113q-101 -56 -101 -139zM186 1355q4 33 64 47q16 4 22 -2q0 -8 9 -18q4 0 4 -8l-4 -8q-2 -10 5 -19.5t23.5 -28t32.5 -61.5t33 -61q10 -6 20 -19q-2 -8 0 -24q10 -6 27 -23 q0 -16 6 -45q8 -16 16 -53q2 -10 -22 -25q-35 -20 -59 -16q-10 0 -15 18q-6 27 -8 29q-31 55 -59 133q-20 23 -52 70q-4 23 -16 65q-2 6 -14.5 22.5t-12.5 26.5z" />
<glyph unicode="&#xe1;" horiz-adv-x="641" d="M32 133v15q0 98 52 147q27 14 77 47q27 23 82 57q63 18 125 39q78 29 105 72q-2 123 -64 195q-43 47 -112 47q-57 0 -80 -50q-8 -35 -27 -104q-10 -37 -41 -45q-25 -6 -39 10q-13 14 -12 54v12l6 49q2 4 2 12q6 27 41 68q72 90 180 90q104 0 162 -70q61 -78 74 -237 q6 -8 6 -37t-4 -37q8 -170 8 -166q0 -14 -8 -45t-8 -49q0 -10 6 -53q4 -35 2 -56l-25 -172l60 -8q29 0 80 -20q12 -10 14 -33q0 -23 -12 -33q-19 -15 -65 -15q-18 0 -40 3q-47 8 -145 20l4 58q4 31 8 96q-72 -74 -178 -74h-6q-104 0 -170 68q-54 57 -58 145zM124 123 q0 -44 33 -70q29 -20 103 -24q9 0 18 -1q96 0 127 42q16 37 49 108l15 197q-84 -35 -244 -113q-101 -56 -101 -139zM270 1022q6 18 17 53q2 14 8 46q10 6 27 22q-2 8 -2 25q8 8 20 18q16 18 33.5 61.5t30.5 59.5q10 10 22 21.5t10 27.5q-2 2 -4 8q-2 8 2 11.5t10 15.5 q6 6 21 2q61 -14 63 -47q2 -10 -10 -26.5t-16 -22.5q-2 -23 -15 -66q-23 -20 -53 -70q-29 -78 -59 -133q-2 -23 -23 -47q-23 -4 -59 17q-23 14 -23 24z" />
<glyph unicode="&#xe2;" horiz-adv-x="641" d="M32 133v15q0 98 52 147q27 14 77 47q27 23 82 57q63 18 125 39q78 29 105 72q-2 123 -64 195q-43 47 -112 47q-57 0 -80 -50q-8 -35 -27 -104q-10 -37 -41 -45q-25 -6 -39 10q-13 14 -12 54v12l6 49q2 4 2 12q6 27 41 68q72 90 180 90q104 0 162 -70q61 -78 74 -237 q6 -8 6 -37t-4 -37q8 -170 8 -166q0 -14 -8 -45t-8 -49q0 -10 6 -53q4 -35 2 -56l-25 -172l60 -8q29 0 80 -20q12 -10 14 -33q0 -23 -12 -33q-19 -15 -65 -15q-18 0 -40 3q-47 8 -145 20l4 58q4 31 8 96q-72 -74 -178 -74h-6q-104 0 -170 68q-54 57 -58 145zM124 123 q0 -44 33 -70q29 -20 103 -24q9 0 18 -1q96 0 127 42q16 37 49 108l15 197q-84 -35 -244 -113q-101 -56 -101 -139zM102 1024q-2 16 18.5 29.5t39.5 24.5q51 39 172 110q27 -10 80 -37q20 -23 65 -67q20 -10 42 -23.5t22 -34.5q0 -47 -45 -65q2 0 -25 10v-2l-3 5q-3 5 -7 13 q-6 18 -27 23q-27 4 -55 29q-25 18 -49 39q-14 -18 -45 -50q-8 2 -21 3q-4 -10 -16 -29q-14 -4 -45 -15q-12 -8 -27.5 -17t-28.5 -7q-8 2 -25.5 24.5t-19.5 36.5z" />
<glyph unicode="&#xe3;" horiz-adv-x="641" d="M32 133v15q0 98 52 147q27 14 77 47q27 23 82 57q63 18 125 39q78 29 105 72q-2 123 -64 195q-43 47 -112 47q-57 0 -80 -50q-8 -35 -27 -104q-10 -37 -41 -45q-25 -6 -39 10q-13 14 -12 54v12l6 49q2 4 2 12q6 27 41 68q72 90 180 90q104 0 162 -70q61 -78 74 -237 q6 -8 6 -37t-4 -37q8 -170 8 -166q0 -14 -8 -45t-8 -49q0 -10 6 -53q4 -35 2 -56l-25 -172l60 -8q29 0 80 -20q12 -10 14 -33q0 -23 -12 -33q-19 -15 -65 -15q-18 0 -40 3q-47 8 -145 20l4 58q4 31 8 96q-72 -74 -178 -74h-6q-104 0 -170 68q-54 57 -58 145zM124 123 q0 -44 33 -70q29 -20 103 -24q9 0 18 -1q96 0 127 42q16 37 49 108l15 197q-84 -35 -244 -113q-101 -56 -101 -139zM135 1122q0 2 23 29q-2 0 8 6h14q16 0 31 10q39 29 74 29q27 0 76 -34t77 -32q8 -10 23 -12q6 8 25.5 8t23.5 2q16 14 51 27q8 0 33 -16l10 -7l9 -8 q23 -16 10 -37q-8 -16 -35 -30q-86 -47 -133 -43q-43 2 -80 28q-18 16 -57 43q-12 -2 -39 2q-23 12 -35 4t-26.5 -18t-24.5 -8q-54 18 -58 57z" />
<glyph unicode="&#xe4;" horiz-adv-x="641" d="M32 133v15q0 98 52 147q27 14 77 47q27 23 82 57q63 18 125 39q78 29 105 72q-2 123 -64 195q-43 47 -112 47q-57 0 -80 -50q-8 -35 -27 -104q-10 -37 -41 -45q-25 -6 -39 10q-13 14 -12 54v12l6 49q2 4 2 12q6 27 41 68q72 90 180 90q104 0 162 -70q61 -78 74 -237 q6 -8 6 -37t-4 -37q8 -170 8 -166q0 -14 -8 -45t-8 -49q0 -10 6 -53q4 -35 2 -56l-25 -172l60 -8q29 0 80 -20q12 -10 14 -33q0 -23 -12 -33q-19 -15 -65 -15q-18 0 -40 3q-47 8 -145 20l4 58q4 31 8 96q-72 -74 -178 -74h-6q-104 0 -170 68q-54 57 -58 145zM124 123 q0 -44 33 -70q29 -20 103 -24q9 0 18 -1q96 0 127 42q16 37 49 108l15 197q-84 -35 -244 -113q-101 -56 -101 -139zM145 1030q4 27 31 48.5t53 21.5q35 0 50 -15q6 -16 21 -41.5t1 -35.5q-10 -18 -33 -47q-14 -12 -41 -2q-82 32 -82 71zM350 1030q4 27 31 48.5t53 21.5 q35 0 49 -15q6 -16 21.5 -41.5t1.5 -35.5q-10 -18 -33 -47q-14 -12 -41 -2q-82 32 -82 71z" />
<glyph unicode="&#xe5;" horiz-adv-x="641" d="M32 133v15q0 98 52 147q27 14 77 47q27 23 82 57q63 18 125 39q78 29 105 72q-2 123 -64 195q-43 47 -112 47q-57 0 -80 -50q-8 -35 -27 -104q-10 -37 -41 -45q-25 -6 -39 10q-13 14 -12 54v12l6 49q2 4 2 12q6 27 41 68q72 90 180 90q104 0 162 -70q61 -78 74 -237 q6 -8 6 -37t-4 -37q8 -170 8 -166q0 -14 -8 -45t-8 -49q0 -10 6 -53q4 -35 2 -56l-25 -172l60 -8q29 0 80 -20q12 -10 14 -33q0 -23 -12 -33q-19 -15 -65 -15q-18 0 -40 3q-47 8 -145 20l4 58q4 31 8 96q-72 -74 -178 -74h-6q-104 0 -170 68q-54 57 -58 145zM124 123 q0 -44 33 -70q29 -20 103 -24q9 0 18 -1q96 0 127 42q16 37 49 108l15 197q-84 -35 -244 -113q-101 -56 -101 -139zM202 1112q-8 74 13 107l43 37q35 33 63 32q29 -12 51 -26q55 -31 70 -60q23 -41 16 -61q0 -12 4 -27q4 -8 -2 -53l-2 -4q-2 -10 -26 -35q-49 -53 -84 -59 q-53 0 -86 28q-50 43 -60 121zM278 1118q2 -51 64 -69q18 -4 28 10q25 35 25 43q0 16 -8 31.5t-23 42.5q-14 18 -39 16q-20 0 -34.5 -24.5t-12.5 -49.5z" />
<glyph unicode="&#xe6;" horiz-adv-x="1103" d="M16 221q-4 109 52 162q27 14 77 49q27 20 82 55q61 18 123 39q78 27 105 66q2 129 -41 188q-37 51 -133 56q-61 2 -82 -45q-6 -37 -25 -109q-8 -29 -27 -37q-29 -10 -45 -2q-23 8 -22 51q0 -8 6 56v10q4 23 39 74q70 104 178 104q109 0 168 -72q29 -35 47 -84 q27 55 62 92q49 51 110 64q80 14 148 -12q53 -20 98 -70q88 -102 111 -356l-54 -6q-94 -16 -186 -33q-117 -18 -184 -17q-45 2 -62 17l2 -29q-2 -35 0 -108q4 -20 29.5 -74.5t38.5 -75.5q23 -39 49 -61q37 -33 86 -31q96 4 137 80q4 8 25 80q14 49 41 63q16 8 28 2 q10 -6 19.5 -36.5t5.5 -67.5q-16 -109 -102 -172q-57 -41 -146 -49q-76 -6 -139.5 29.5t-106.5 109.5l-6 -58q0 -25 -12 -67q-8 -10 -33 -14q-31 -6 -44 14t-11 57q0 6 2 23q-72 -70 -180 -68q-104 0 -170 68q-54 57 -58 145zM109 221q-4 -51 32 -80q29 -20 103 -24 q111 -4 145 41q14 20 29 55q18 49 22 57l9 193q-82 -35 -240 -113q-96 -53 -100 -129zM559 545q2 -14 2 -27q18 14 74 23q29 2 84 10q-10 0 24 4q27 4 56 0q57 -4 151 16q-35 156 -112 228q-55 49 -136 41q-43 -4 -77 -52q-47 -63 -62 -163q-4 -35 -4 -80z" />
<glyph unicode="&#xe7;" horiz-adv-x="643" d="M33 326q-6 174 14 290q23 127 107 199q53 45 114 51q106 8 189 -57q127 -102 116 -231q-4 -33 -32 -43q-27 -12 -45 14q-10 35 -41 100q-4 8 -12.5 25.5t-26.5 54.5q-25 33 -57.5 43t-77.5 0q-86 -20 -134 -182q-27 -92 -26 -191q0 -125 43 -233q8 -37 35 -109 q6 -10 34 -30q66 -49 111 -52q43 0 81 19.5t60 68.5q2 4 23 82q12 49 41 60q14 8 26 4q14 -6 23.5 -35t3.5 -74q-14 -102 -94 -168q-53 -43 -125 -59q-2 -10 -2 -14t-2 -9q-2 -12 -14 -30q12 2 36 4q57 2 113 -27q41 -20 69.5 -64t28.5 -89q0 -123 -84 -172q-12 -8 -41 -9 q-35 -2 -45 -4q-18 -6 -57 -14q-25 -4 -84 18q-43 12 -127 43q-23 6 -59 33q-6 8 0 33q4 14 10 25q18 25 57 12q31 -12 92 -33q94 -18 134 -18q41 0 71 12q45 16 45 74q-2 29 -73 63q-53 25 -91 27q-12 2 -108 -4l18 75q2 23 11 68q-145 31 -211 227q-33 97 -37 226z" />
<glyph unicode="&#xe8;" horiz-adv-x="671" d="M32 344q0 125 37 248q35 117 94 178q47 51 111 61q29 5 57 6q48 0 91 -16q53 -20 98 -71q88 -100 110 -355l-53 -8q-94 -14 -186 -31q-99 -17 -161 -17q-12 0 -24 1q-47 2 -61 16l2 -28q-2 -18 -2 -45.5t2 -63.5q4 -23 29.5 -77t38.5 -72q23 -39 49 -64q35 -29 78 -29h6 q98 2 139 78q4 10 25 82q14 49 41 64q16 6 26 2q12 -6 23 -41q5 -18 5 -40q0 -11 -1 -24q-16 -111 -105 -172q-55 -41 -145 -49q-11 -1 -21 -1q-63 0 -118 32q-72 41 -117 129q-68 133 -68 307zM143 410q18 16 76 26q29 2 84 10q-10 0 24 5q27 2 56 0q9 -1 19 -1 q52 0 132 17q-35 156 -112 225q-49 44 -115 44q-10 0 -21 -1q-43 -4 -77 -51q-47 -66 -62 -166q-5 -32 -5 -77q0 -15 1 -31zM186 1355q4 33 64 47q16 4 22 -2q0 -8 9 -18q4 0 4 -8l-4 -8q-2 -10 5 -19.5t23.5 -28t32.5 -61.5t33 -61q10 -6 20 -19q-2 -8 0 -24q10 -6 27 -23 q0 -16 6 -45q8 -16 16 -53q2 -10 -22 -25q-35 -20 -59 -16q-10 0 -15 18q-6 27 -8 29q-31 55 -59 133q-20 23 -52 70q-4 23 -16 65q-2 6 -14.5 22.5t-12.5 26.5z" />
<glyph unicode="&#xe9;" horiz-adv-x="671" d="M32 344q0 125 37 248q35 117 94 178q47 51 111 61q29 5 57 6q48 0 91 -16q53 -20 98 -71q88 -100 110 -355l-53 -8q-94 -14 -186 -31q-99 -17 -161 -17q-12 0 -24 1q-47 2 -61 16l2 -28q-2 -18 -2 -45.5t2 -63.5q4 -23 29.5 -77t38.5 -72q23 -39 49 -64q35 -29 78 -29h6 q98 2 139 78q4 10 25 82q14 49 41 64q16 6 26 2q12 -6 23 -41q5 -18 5 -40q0 -11 -1 -24q-16 -111 -105 -172q-55 -41 -145 -49q-11 -1 -21 -1q-63 0 -118 32q-72 41 -117 129q-68 133 -68 307zM143 410q18 16 76 26q29 2 84 10q-10 0 24 5q27 2 56 0q9 -1 19 -1 q52 0 132 17q-35 156 -112 225q-49 44 -115 44q-10 0 -21 -1q-43 -4 -77 -51q-47 -66 -62 -166q-5 -32 -5 -77q0 -15 1 -31zM276 1022q6 18 17 53q2 14 8 46q10 6 27 22q-2 8 -2 25q8 8 20 18q16 18 33.5 61.5t30.5 59.5q10 10 22 21.5t10 27.5q-2 2 -4 8q-2 8 2 11.5 t10 15.5q6 6 21 2q61 -14 63 -47q2 -10 -10 -26.5t-16 -22.5q-2 -23 -15 -66q-23 -20 -53 -70q-29 -78 -59 -133q-2 -23 -23 -47q-23 -4 -59 17q-23 14 -23 24z" />
<glyph unicode="&#xea;" horiz-adv-x="671" d="M32 344q0 125 37 248q35 117 94 178q47 51 111 61q29 5 57 6q48 0 91 -16q53 -20 98 -71q88 -100 110 -355l-53 -8q-94 -14 -186 -31q-99 -17 -161 -17q-12 0 -24 1q-47 2 -61 16l2 -28q-2 -18 -2 -45.5t2 -63.5q4 -23 29.5 -77t38.5 -72q23 -39 49 -64q35 -29 78 -29h6 q98 2 139 78q4 10 25 82q14 49 41 64q16 6 26 2q12 -6 23 -41q5 -18 5 -40q0 -11 -1 -24q-16 -111 -105 -172q-55 -41 -145 -49q-11 -1 -21 -1q-63 0 -118 32q-72 41 -117 129q-68 133 -68 307zM143 410q18 16 76 26q29 2 84 10q-10 0 24 5q27 2 56 0q9 -1 19 -1 q52 0 132 17q-35 156 -112 225q-49 44 -115 44q-10 0 -21 -1q-43 -4 -77 -51q-47 -66 -62 -166q-5 -32 -5 -77q0 -15 1 -31zM102 1024q-2 16 18.5 29.5t39.5 24.5q51 39 172 110q27 -10 80 -37q20 -23 65 -67q20 -10 42 -23.5t22 -34.5q0 -47 -45 -65q2 0 -25 10v-2l-3 5 q-3 5 -7 13q-6 18 -27 23q-27 4 -55 29q-25 18 -49 39q-14 -18 -45 -50q-8 2 -21 3q-4 -10 -16 -29q-14 -4 -45 -15q-12 -8 -27.5 -17t-28.5 -7q-8 2 -25.5 24.5t-19.5 36.5z" />
<glyph unicode="&#xeb;" horiz-adv-x="671" d="M32 344q0 125 37 248q35 117 94 178q47 51 111 61q29 5 57 6q48 0 91 -16q53 -20 98 -71q88 -100 110 -355l-53 -8q-94 -14 -186 -31q-99 -17 -161 -17q-12 0 -24 1q-47 2 -61 16l2 -28q-2 -18 -2 -45.5t2 -63.5q4 -23 29.5 -77t38.5 -72q23 -39 49 -64q35 -29 78 -29h6 q98 2 139 78q4 10 25 82q14 49 41 64q16 6 26 2q12 -6 23 -41q5 -18 5 -40q0 -11 -1 -24q-16 -111 -105 -172q-55 -41 -145 -49q-11 -1 -21 -1q-63 0 -118 32q-72 41 -117 129q-68 133 -68 307zM143 410q18 16 76 26q29 2 84 10q-10 0 24 5q27 2 56 0q9 -1 19 -1 q52 0 132 17q-35 156 -112 225q-49 44 -115 44q-10 0 -21 -1q-43 -4 -77 -51q-47 -66 -62 -166q-5 -32 -5 -77q0 -15 1 -31zM131 1044q4 27 31 48.5t53 21.5q35 0 50 -15q6 -16 21 -41.5t1 -35.5q-10 -18 -33 -47q-14 -12 -41 -2q-82 32 -82 71zM336 1044q4 27 31 48.5 t53 21.5q35 0 49 -15q6 -16 21.5 -41.5t1.5 -35.5q-10 -18 -33 -47q-14 -12 -41 -2q-82 32 -82 71z" />
<glyph unicode="&#xec;" horiz-adv-x="403" d="M2 674q2 27 18 37q25 14 113 14q66 -2 141 4q4 -63 0 -170.5t0 -173.5q2 -31 10 -102q10 -82 11 -97q-6 -82 0 -125q0 -6 8 -43q4 -23 2 -36q16 8 26 8q25 -4 72 -8q6 0 31 6q18 6 28 0q31 -14 23 -76q-2 -16 -11 -16t-20 -5q-4 -4 -12 0q-20 10 -25 11q-18 -8 -55 -19 q-45 0 -133 -14q-10 -6 -27 -12q-4 0 -12 5t-12 5q-6 0 -16.5 -8.5t-16.5 -8.5q-10 0 -25.5 4.5t-21.5 6.5q-20 -2 -59 2q-12 4 -17 31q-6 33 0 49t19 18q14 -2 45 -2q70 8 125 8q0 18 -2 51v-2l-3 2v2v5q0 14 3 16q0 2 -3 39q0 4 -8 46t-8 112q0 41 -6 143q-6 20 -12 76 q6 23 8 67q-6 12 -14 37q0 2 6 55q-12 2 -115 7q-18 0 -45 10q-12 16 -10 41zM-15 1265q4 33 64 47q16 4 22 -2q0 -8 9 -18q4 0 4 -8l-4 -8q-2 -10 5 -19.5t23.5 -28t32.5 -61.5t33 -61q10 -6 20 -19q-2 -8 0 -24q10 -6 27 -23q0 -16 6 -45q8 -16 16 -53q2 -10 -22 -25 q-35 -20 -59 -16q-10 0 -15 18q-6 27 -8 29q-31 55 -59 133q-20 23 -52 70q-4 23 -16 65q-2 6 -14.5 22.5t-12.5 26.5z" />
<glyph unicode="&#xed;" horiz-adv-x="403" d="M2 674q2 27 18 37q25 14 113 14q66 -2 141 4q4 -63 0 -170.5t0 -173.5q2 -31 10 -102q10 -82 11 -97q-6 -82 0 -125q0 -6 8 -43q4 -23 2 -36q16 8 26 8q25 -4 72 -8q6 0 31 6q18 6 28 0q31 -14 23 -76q-2 -16 -11 -16t-20 -5q-4 -4 -12 0q-20 10 -25 11q-18 -8 -55 -19 q-45 0 -133 -14q-10 -6 -27 -12q-4 0 -12 5t-12 5q-6 0 -16.5 -8.5t-16.5 -8.5q-10 0 -25.5 4.5t-21.5 6.5q-20 -2 -59 2q-12 4 -17 31q-6 33 0 49t19 18q14 -2 45 -2q70 8 125 8q0 18 -2 51v-2l-3 2v2v5q0 14 3 16q0 2 -3 39q0 4 -8 46t-8 112q0 41 -6 143q-6 20 -12 76 q6 23 8 67q-6 12 -14 37q0 2 6 55q-12 2 -115 7q-18 0 -45 10q-12 16 -10 41zM141 932q6 18 17 53q2 14 8 46q10 6 27 22q-2 8 -2 25q8 8 20 18q16 18 33.5 61.5t30.5 59.5q10 10 22 21.5t10 27.5q-2 2 -4 8q-2 8 2 11.5t10 15.5q6 6 21 2q61 -14 63 -47q2 -10 -10 -26.5 t-16 -22.5q-2 -23 -15 -66q-23 -20 -53 -70q-29 -78 -59 -133q-2 -23 -23 -47q-23 -4 -59 17q-23 14 -23 24z" />
<glyph unicode="&#xee;" horiz-adv-x="403" d="M2 674q2 27 18 37q25 14 113 14q66 -2 141 4q4 -63 0 -170.5t0 -173.5q2 -31 10 -102q10 -82 11 -97q-6 -82 0 -125q0 -6 8 -43q4 -23 2 -36q16 8 26 8q25 -4 72 -8q6 0 31 6q18 6 28 0q31 -14 23 -76q-2 -16 -11 -16t-20 -5q-4 -4 -12 0q-20 10 -25 11q-18 -8 -55 -19 q-45 0 -133 -14q-10 -6 -27 -12q-4 0 -12 5t-12 5q-6 0 -16.5 -8.5t-16.5 -8.5q-10 0 -25.5 4.5t-21.5 6.5q-20 -2 -59 2q-12 4 -17 31q-6 33 0 49t19 18q14 -2 45 -2q70 8 125 8q0 18 -2 51v-2l-3 2v2v5q0 14 3 16q0 2 -3 39q0 4 -8 46t-8 112q0 41 -6 143q-6 20 -12 76 q6 23 8 67q-6 12 -14 37q0 2 6 55q-12 2 -115 7q-18 0 -45 10q-12 16 -10 41zM-47 958q-2 16 18.5 29.5t39.5 24.5q51 39 172 110q27 -10 80 -37q20 -23 65 -67q20 -10 42 -23.5t22 -34.5q0 -47 -45 -65q2 0 -25 10v-2l-3 5q-3 5 -7 13q-6 18 -27 23q-27 4 -55 29 q-25 18 -49 39q-14 -18 -45 -50q-8 2 -21 3q-4 -10 -16 -29q-14 -4 -45 -15q-12 -8 -27.5 -17t-28.5 -7q-8 2 -25.5 24.5t-19.5 36.5z" />
<glyph unicode="&#xef;" horiz-adv-x="403" d="M2 674q2 27 18 37q25 14 113 14q66 -2 141 4q4 -63 0 -170.5t0 -173.5q2 -31 10 -102q10 -82 11 -97q-6 -82 0 -125q0 -6 8 -43q4 -23 2 -36q16 8 26 8q25 -4 72 -8q6 0 31 6q18 6 28 0q31 -14 23 -76q-2 -16 -11 -16t-20 -5q-4 -4 -12 0q-20 10 -25 11q-18 -8 -55 -19 q-45 0 -133 -14q-10 -6 -27 -12q-4 0 -12 5t-12 5q-6 0 -16.5 -8.5t-16.5 -8.5q-10 0 -25.5 4.5t-21.5 6.5q-20 -2 -59 2q-12 4 -17 31q-6 33 0 49t19 18q14 -2 45 -2q70 8 125 8q0 18 -2 51v-2l-3 2v2v5q0 14 3 16q0 2 -3 39q0 4 -8 46t-8 112q0 41 -6 143q-6 20 -12 76 q6 23 8 67q-6 12 -14 37q0 2 6 55q-12 2 -115 7q-18 0 -45 10q-12 16 -10 41zM4 993q4 27 31 48.5t53 21.5q35 0 50 -15q6 -16 21 -41.5t1 -35.5q-10 -18 -33 -47q-14 -12 -41 -2q-82 32 -82 71zM209 993q4 27 31 48.5t53 21.5q35 0 49 -15q6 -16 21.5 -41.5t1.5 -35.5 q-10 -18 -33 -47q-14 -12 -41 -2q-82 32 -82 71z" />
<glyph unicode="&#xf0;" horiz-adv-x="696" d="M18 449q14 225 103.5 332.5t210.5 95.5q96 -10 176 -109q-23 106 -76 262q-8 0 -35.5 -7t-44.5 -7q-25 6 -78 16q-27 -8 -71 2q-35 27 -10 82q4 10 16 10q8 -2 18 0q2 2 18.5 -7t30.5 -5q18 6 54 12q18 0 63 -2q-25 47 -127 148q-57 57 -53 84q4 33 25 39q25 8 61 -21 q16 -14 49 -41l7 -7q5 -5 42 -60q33 -43 99 -136q12 6 16 7q8 -6 25 -13q12 6 41 13q16 -4 51 -13q23 -2 65 -10q12 -4 15 -31q4 -55 -19 -63q-20 2 -59 4q-39 -2 -82 0q53 -135 63 -371q0 -18 9 -96q6 -57 4 -96q0 -14 -8.5 -47t-8.5 -49q2 -139 6 -117q-8 -66 -45 -217 q27 -4 45.5 -8.5t38 -9.5t27.5 -17q27 -39 -3 -59.5t-95 -10.5q-45 8 -133 23l14 65q4 20 14 66q-88 -96 -194 -90q-115 6 -193 123q-86 129 -72 336zM109 442q-4 -72 16 -137q10 -25 29 -74q10 -33 41 -90q27 -29 94 -37q47 -4 97 30t87 122l35 125q2 25 6 70 q-4 37 -16 110q-2 4 -4 10q-4 33 -19 95q-16 43 -59 75.5t-90 32.5q-70 0 -131 -76q-80 -100 -86 -256z" />
<glyph unicode="&#xf1;" d="M-29 805q-7 16 -7 30t7 25q10 16 41 19h61q6 2 17 2q16 0 30 -7q13 -7 42 -6q24 0 59 4q14 -80 18 -194l8 14q37 63 76 86q62 41 138 42q7 0 14 -1q70 -2 125 -46t96 -132q12 -31 33 -94q-2 -15 -2 -39t2 -55q10 -35 10 -76q0 -31 -6 -80q-6 -61 -8 -80q-2 -43 -9 -129 q10 -10 13 -8q4 4 14 12q8 4 20.5 -3t14.5 -9q14 0 39 -6q8 -6 10 -39q0 -37 -8 -53q-2 -6 -17 -5q-18 4 -20 5q-14 -1 -30 -2q-32 0 -70 6q-12 2 -31 -8.5t-29 -10.5q-8 0 -23.5 7.5t-21.5 7.5q-14 -6 -39 -2q-10 8 -12 47q-2 31 4 43q6 0 18 6q2 4 11 -8q6 -4 12 -5 q6 -2 15.5 4.5t16.5 8.5t21 2q-6 16 -6 33q0 27 6 98v242q0 141 -47 217q-29 47 -85 46q-10 0 -21 -1q-123 -18 -160 -72q-10 -14 -35 -111q-6 -23 -10 -30q-8 -18 -23 -27q2 -23 2 -39q2 -25 11.5 -35t9.5 -34q-6 -27 -8 -76q6 -27 14 -76q1 -10 1 -27q0 -34 -5 -94 q-78 2 -232 12q-31 4 -36 21q-8 17 -9 30q0 24 25 42q7 5 34 5q13 0 32 -1q33 -3 56 -3q12 0 21 1q0 74 -4 264q-12 55 -24 170q-1 7 -1 15q0 25 5 61q4 55 4 77q-18 0 -53 -4t-50 -4q-51 0 -65 27zM182 1134q0 2 23 29q-2 0 8 6h14q16 0 31 10q39 29 74 29q27 0 76 -34 t77 -32q8 -10 23 -12q6 8 25.5 8t23.5 2q16 14 51 27q8 0 33 -16l10 -7l9 -8q23 -16 10 -37q-8 -16 -35 -30q-86 -47 -133 -43q-43 2 -80 28q-18 16 -57 43q-12 -2 -39 2q-23 12 -35 4t-26.5 -18t-24.5 -8q-54 18 -58 57z" />
<glyph unicode="&#xf2;" horiz-adv-x="655" d="M32 487q-2 37 -2 71q0 133 39 208q12 25 62 78q18 25 63 69q47 35 102 35h7q70 0 129 -43q100 -74 147 -219q23 -66 25 -119q10 -152 10 -153q-2 -18 -12 -78q-2 -4 -2 -14q-8 -27 -54 -103q-51 -88 -100 -124t-102 -38h-9q-107 0 -190 101q-101 124 -113 329zM122 492 q0 -141 103 -261q61 -72 115 -75q4 0 7 -1q47 0 91 46q33 35 57 125q8 33 23 98q2 7 2 23.5t-2 41.5q-2 51 -6 66q-8 33 -27 100q-29 92 -86 144q-43 39 -88 39h-4q-74 -2 -129.5 -99t-55.5 -247zM133 1421q4 33 64 47q16 4 22 -2q0 -8 9 -18q4 0 4 -8l-4 -8q-2 -10 5 -19.5 t23.5 -28t32.5 -61.5t33 -61q10 -6 20 -19q-2 -8 0 -24q10 -6 27 -23q0 -16 6 -45q8 -16 16 -53q2 -10 -22 -25q-35 -20 -59 -16q-10 0 -15 18q-6 27 -8 29q-31 55 -59 133q-20 23 -52 70q-4 23 -16 65q-2 6 -14.5 22.5t-12.5 26.5z" />
<glyph unicode="&#xf3;" horiz-adv-x="655" d="M32 487q-2 37 -2 71q0 133 39 208q12 25 62 78q18 25 63 69q47 35 102 35h7q70 0 129 -43q100 -74 147 -219q23 -66 25 -119q10 -152 10 -153q-2 -18 -12 -78q-2 -4 -2 -14q-8 -27 -54 -103q-51 -88 -100 -124t-102 -38h-9q-107 0 -190 101q-101 124 -113 329zM122 492 q0 -141 103 -261q61 -72 115 -75q4 0 7 -1q47 0 91 46q33 35 57 125q8 33 23 98q2 7 2 23.5t-2 41.5q-2 51 -6 66q-8 33 -27 100q-29 92 -86 144q-43 39 -88 39h-4q-74 -2 -129.5 -99t-55.5 -247zM211 1143q6 18 17 53q2 14 8 46q10 6 27 22q-2 8 -2 25q8 8 20 18 q16 18 33.5 61.5t30.5 59.5q10 10 22 21.5t10 27.5q-2 2 -4 8q-2 8 2 11.5t10 15.5q6 6 21 2q61 -14 63 -47q2 -10 -10 -26.5t-16 -22.5q-2 -23 -15 -66q-23 -20 -53 -70q-29 -78 -59 -133q-2 -23 -23 -47q-23 -4 -59 17q-23 14 -23 24z" />
<glyph unicode="&#xf4;" horiz-adv-x="655" d="M32 487q-2 37 -2 71q0 133 39 208q12 25 62 78q18 25 63 69q47 35 102 35h7q70 0 129 -43q100 -74 147 -219q23 -66 25 -119q10 -152 10 -153q-2 -18 -12 -78q-2 -4 -2 -14q-8 -27 -54 -103q-51 -88 -100 -124t-102 -38h-9q-107 0 -190 101q-101 124 -113 329zM122 492 q0 -141 103 -261q61 -72 115 -75q4 0 7 -1q47 0 91 46q33 35 57 125q8 33 23 98q2 7 2 23.5t-2 41.5q-2 51 -6 66q-8 33 -27 100q-29 92 -86 144q-43 39 -88 39h-4q-74 -2 -129.5 -99t-55.5 -247zM55 1095q-2 16 18.5 29.5t39.5 24.5q51 39 172 110q27 -10 80 -37 q20 -23 65 -67q20 -10 42 -23.5t22 -34.5q0 -47 -45 -65q2 0 -25 10v-2l-3 5q-3 5 -7 13q-6 18 -27 23q-27 4 -55 29q-25 18 -49 39q-14 -18 -45 -50q-8 2 -21 3q-4 -10 -16 -29q-14 -4 -45 -15q-12 -8 -27.5 -17t-28.5 -7q-8 2 -25.5 24.5t-19.5 36.5z" />
<glyph unicode="&#xf5;" horiz-adv-x="655" d="M32 487q-2 37 -2 71q0 133 39 208q12 25 62 78q18 25 63 69q47 35 102 35h7q70 0 129 -43q100 -74 147 -219q23 -66 25 -119q10 -152 10 -153q-2 -18 -12 -78q-2 -4 -2 -14q-8 -27 -54 -103q-51 -88 -100 -124t-102 -38h-9q-107 0 -190 101q-101 124 -113 329zM122 492 q0 -141 103 -261q61 -72 115 -75q4 0 7 -1q47 0 91 46q33 35 57 125q8 33 23 98q2 7 2 23.5t-2 41.5q-2 51 -6 66q-8 33 -27 100q-29 92 -86 144q-43 39 -88 39h-4q-74 -2 -129.5 -99t-55.5 -247zM36 1208q0 2 23 29q-2 0 8 6h14q16 0 31 10q39 29 74 29q27 0 76 -34t77 -32 q8 -10 23 -12q6 8 25.5 8t23.5 2q16 14 51 27q8 0 33 -16l10 -7l9 -8q23 -16 10 -37q-8 -16 -35 -30q-86 -47 -133 -43q-43 2 -80 28q-18 16 -57 43q-12 -2 -39 2q-23 12 -35 4t-26.5 -18t-24.5 -8q-54 18 -58 57z" />
<glyph unicode="&#xf6;" horiz-adv-x="655" d="M32 487q-2 37 -2 71q0 133 39 208q12 25 62 78q18 25 63 69q47 35 102 35h7q70 0 129 -43q100 -74 147 -219q23 -66 25 -119q10 -152 10 -153q-2 -18 -12 -78q-2 -4 -2 -14q-8 -27 -54 -103q-51 -88 -100 -124t-102 -38h-9q-107 0 -190 101q-101 124 -113 329zM122 492 q0 -141 103 -261q61 -72 115 -75q4 0 7 -1q47 0 91 46q33 35 57 125q8 33 23 98q2 7 2 23.5t-2 41.5q-2 51 -6 66q-8 33 -27 100q-29 92 -86 144q-43 39 -88 39h-4q-74 -2 -129.5 -99t-55.5 -247zM90 1126q4 27 31 48.5t53 21.5q35 0 50 -15q6 -16 21 -41.5t1 -35.5 q-10 -18 -33 -47q-14 -12 -41 -2q-82 32 -82 71zM295 1126q4 27 31 48.5t53 21.5q35 0 49 -15q6 -16 21.5 -41.5t1.5 -35.5q-10 -18 -33 -47q-14 -12 -41 -2q-82 32 -82 71z" />
<glyph unicode="&#xf7;" horiz-adv-x="589" d="M16 537q4 10 17 10q8 -2 18 0q2 2 18.5 -7.5t30.5 -4.5q18 6 56 12q16 2 50 -1t48 -3t44 7t38 7q8 -6 24 -12q12 8 41 14q16 -6 52 -14q23 0 65 -8q12 -6 14 -33q4 -55 -18 -64q-20 2 -59 4q-76 -2 -176 9q-33 -8 -101 -17q-27 6 -80 17q-27 -6 -71 2q-36 29 -11 82z M199 291q2 29 28.5 50t55.5 21q35 0 47 -14q6 -16 21.5 -41.5t2.5 -38.5q-10 -16 -32 -45q-14 -12 -43 -2q-80 33 -80 70zM199 721q2 29 28.5 50.5t55.5 21.5q35 0 47 -15q6 -16 21.5 -41.5t2.5 -38.5q-10 -16 -32 -45q-14 -12 -43 -2q-80 33 -80 70z" />
<glyph unicode="&#xf8;" horiz-adv-x="655" d="M16 487q-12 184 37 279q12 25 62 78q18 25 63 69q49 37 109 35q55 0 108 -28q6 33 25 98q18 53 45 59q33 8 53 -14q14 -14 6 -47q-2 -6 -7 -22.5t-28 -59.5q-18 -31 -22 -64l-2 -8q66 -72 98 -176q23 -66 25 -119q10 -152 10 -153q-2 -18 -12 -78q-2 -4 -2 -14 q-8 -27 -54 -103q-51 -88 -100 -124t-102 -38q-43 -2 -88 19q-10 -27 -27 -76q-6 -25 -29 -66q-18 -23 -59 -4q-33 14 -19 70q14 35 39 111l9 22q-124 116 -138 354zM106 492q0 -125 82 -236q31 96 82 242q12 39 26.5 116.5t25 110.5t34.5 92q-33 20 -65 21 q-74 -2 -129.5 -99t-55.5 -247zM281 170q23 -12 43 -14q51 -4 98 45q33 35 57 125q8 33 23 98q4 14 0 65q-2 51 -6 66q-14 59 -60 174q-25 -76 -69 -227q-8 -53 -33 -156q-10 -16 -29 -53q0 -23 -6 -70q-6 -24 -18 -53z" />
<glyph unicode="&#xf9;" horiz-adv-x="813" d="M32 815q2 35 13 51q2 4 8 4q4 0 8 -2q18 -6 21 -6q43 -2 100 -16q20 6 61 10l43 -18q14 4 39 -2q10 -10 6 -50q0 -14 -8 -41q-8 0 -18 -4q-2 -2 -9.5 6.5t-13.5 10.5q-6 0 -15 -5t-13 -5q-10 -2 -25 0q2 -16 0 -33q-2 -27 -16 -99q0 -4 -27 -239q-5 -41 -5 -78 q0 -86 28 -143q27 -56 91 -56h9q123 4 166 52q14 14 49 106q8 23 12 31q10 16 25 22q2 23 2 39q-2 51 -2 154q2 12 10 36.5t8 39.5q0 12 -4 37.5t-4 37.5q0 31 18 119q78 -10 230 -39q29 -6 35 -22q5 -13 4 -25q0 -29 -29 -47q-5 -2 -15 -2q-17 0 -49 6q-52 10 -79 12 q-12 -115 -35 -344q4 -57 6 -174q-10 -49 -27 -149q35 0 103 -4q51 -6 61 -35q6 -17 7 -29q0 -28 -31 -37q-10 -2 -25 -2l-61 6h-15q-16 2 -30 11q-25 14 -99 14q-3 33 -2 73q0 53 4 119l-8 -12q-45 -57 -86 -78q-53 -26 -111 -25q-21 0 -42 3q-70 10 -120 60t-81 143 q-10 33 -23 96q8 31 11 94q-2 20 -3 41q0 39 13 96q20 94 20 99q6 41 23 125q-6 8 -25 10q-27 2 -38 4t-36 12q-5 5 -4 25q-1 7 0 16zM295 1304q4 33 64 47q16 4 22 -2q0 -8 9 -18q4 0 4 -8l-4 -8q-2 -10 5 -19.5t23.5 -28t32.5 -61.5t33 -61q10 -6 20 -19q-2 -8 0 -24 q10 -6 27 -23q0 -16 6 -45q8 -16 16 -53q2 -10 -22 -25q-35 -20 -59 -16q-10 0 -15 18q-6 27 -8 29q-31 55 -59 133q-20 23 -52 70q-4 23 -16 65q-2 6 -14.5 22.5t-12.5 26.5z" />
<glyph unicode="&#xfa;" horiz-adv-x="813" d="M32 815q2 35 13 51q2 4 8 4q4 0 8 -2q18 -6 21 -6q43 -2 100 -16q20 6 61 10l43 -18q14 4 39 -2q10 -10 6 -50q0 -14 -8 -41q-8 0 -18 -4q-2 -2 -9.5 6.5t-13.5 10.5q-6 0 -15 -5t-13 -5q-10 -2 -25 0q2 -16 0 -33q-2 -27 -16 -99q0 -4 -27 -239q-5 -41 -5 -78 q0 -86 28 -143q27 -56 91 -56h9q123 4 166 52q14 14 49 106q8 23 12 31q10 16 25 22q2 23 2 39q-2 51 -2 154q2 12 10 36.5t8 39.5q0 12 -4 37.5t-4 37.5q0 31 18 119q78 -10 230 -39q29 -6 35 -22q5 -13 4 -25q0 -29 -29 -47q-5 -2 -15 -2q-17 0 -49 6q-52 10 -79 12 q-12 -115 -35 -344q4 -57 6 -174q-10 -49 -27 -149q35 0 103 -4q51 -6 61 -35q6 -17 7 -29q0 -28 -31 -37q-10 -2 -25 -2l-61 6h-15q-16 2 -30 11q-25 14 -99 14q-3 33 -2 73q0 53 4 119l-8 -12q-45 -57 -86 -78q-53 -26 -111 -25q-21 0 -42 3q-70 10 -120 60t-81 143 q-10 33 -23 96q8 31 11 94q-2 20 -3 41q0 39 13 96q20 94 20 99q6 41 23 125q-6 8 -25 10q-27 2 -38 4t-36 12q-5 5 -4 25q-1 7 0 16zM415 979q6 18 17 53q2 14 8 46q10 6 27 22q-2 8 -2 25q8 8 20 18q16 18 33.5 61.5t30.5 59.5q10 10 22 21.5t10 27.5q-2 2 -4 8 q-2 8 2 11.5t10 15.5q6 6 21 2q61 -14 63 -47q2 -10 -10 -26.5t-16 -22.5q-2 -23 -15 -66q-23 -20 -53 -70q-29 -78 -59 -133q-2 -23 -23 -47q-23 -4 -59 17q-23 14 -23 24z" />
<glyph unicode="&#xfb;" horiz-adv-x="813" d="M32 815q2 35 13 51q2 4 8 4q4 0 8 -2q18 -6 21 -6q43 -2 100 -16q20 6 61 10l43 -18q14 4 39 -2q10 -10 6 -50q0 -14 -8 -41q-8 0 -18 -4q-2 -2 -9.5 6.5t-13.5 10.5q-6 0 -15 -5t-13 -5q-10 -2 -25 0q2 -16 0 -33q-2 -27 -16 -99q0 -4 -27 -239q-5 -41 -5 -78 q0 -86 28 -143q27 -56 91 -56h9q123 4 166 52q14 14 49 106q8 23 12 31q10 16 25 22q2 23 2 39q-2 51 -2 154q2 12 10 36.5t8 39.5q0 12 -4 37.5t-4 37.5q0 31 18 119q78 -10 230 -39q29 -6 35 -22q5 -13 4 -25q0 -29 -29 -47q-5 -2 -15 -2q-17 0 -49 6q-52 10 -79 12 q-12 -115 -35 -344q4 -57 6 -174q-10 -49 -27 -149q35 0 103 -4q51 -6 61 -35q6 -17 7 -29q0 -28 -31 -37q-10 -2 -25 -2l-61 6h-15q-16 2 -30 11q-25 14 -99 14q-3 33 -2 73q0 53 4 119l-8 -12q-45 -57 -86 -78q-53 -26 -111 -25q-21 0 -42 3q-70 10 -120 60t-81 143 q-10 33 -23 96q8 31 11 94q-2 20 -3 41q0 39 13 96q20 94 20 99q6 41 23 125q-6 8 -25 10q-27 2 -38 4t-36 12q-5 5 -4 25q-1 7 0 16zM241 1011q-2 16 18.5 29.5t39.5 24.5q51 39 172 110q27 -10 80 -37q20 -23 65 -67q20 -10 42 -23.5t22 -34.5q0 -47 -45 -65q2 0 -25 10 v-2l-3 5q-3 5 -7 13q-6 18 -27 23q-27 4 -55 29q-25 18 -49 39q-14 -18 -45 -50q-8 2 -21 3q-4 -10 -16 -29q-14 -4 -45 -15q-12 -8 -27.5 -17t-28.5 -7q-8 2 -25.5 24.5t-19.5 36.5z" />
<glyph unicode="&#xfc;" horiz-adv-x="813" d="M32 815q2 35 13 51q2 4 8 4q4 0 8 -2q18 -6 21 -6q43 -2 100 -16q20 6 61 10l43 -18q14 4 39 -2q10 -10 6 -50q0 -14 -8 -41q-8 0 -18 -4q-2 -2 -9.5 6.5t-13.5 10.5q-6 0 -15 -5t-13 -5q-10 -2 -25 0q2 -16 0 -33q-2 -27 -16 -99q0 -4 -27 -239q-5 -41 -5 -78 q0 -86 28 -143q27 -56 91 -56h9q123 4 166 52q14 14 49 106q8 23 12 31q10 16 25 22q2 23 2 39q-2 51 -2 154q2 12 10 36.5t8 39.5q0 12 -4 37.5t-4 37.5q0 31 18 119q78 -10 230 -39q29 -6 35 -22q5 -13 4 -25q0 -29 -29 -47q-5 -2 -15 -2q-17 0 -49 6q-52 10 -79 12 q-12 -115 -35 -344q4 -57 6 -174q-10 -49 -27 -149q35 0 103 -4q51 -6 61 -35q6 -17 7 -29q0 -28 -31 -37q-10 -2 -25 -2l-61 6h-15q-16 2 -30 11q-25 14 -99 14q-3 33 -2 73q0 53 4 119l-8 -12q-45 -57 -86 -78q-53 -26 -111 -25q-21 0 -42 3q-70 10 -120 60t-81 143 q-10 33 -23 96q8 31 11 94q-2 20 -3 41q0 39 13 96q20 94 20 99q6 41 23 125q-6 8 -25 10q-27 2 -38 4t-36 12q-5 5 -4 25q-1 7 0 16zM288 1026q4 27 31 48.5t53 21.5q35 0 50 -15q6 -16 21 -41.5t1 -35.5q-10 -18 -33 -47q-14 -12 -41 -2q-82 32 -82 71zM493 1026 q4 27 31 48.5t53 21.5q35 0 49 -15q6 -16 21.5 -41.5t1.5 -35.5q-10 -18 -33 -47q-14 -12 -41 -2q-82 32 -82 71z" />
<glyph unicode="&#xfd;" horiz-adv-x="761" d="M-9 901q0 37 9 53q2 6 16 4q18 -4 20 -4q12 1 26 2q34 0 75 -8q20 8 59 17q14 -6 45 -15q14 4 39 2q10 -10 12 -49q0 -29 -4 -41q-8 0 -20 -6q-2 -4 -10 8q-6 4 -13 4q-6 0 -15 -5t-15 -7t-21 -2q4 -14 4 -33q0 -27 -6 -102q0 -90 -2 -273v-14q0 -134 37 -194 q25 -37 55 -50q16 -6 58 -4q119 4 159 66q12 18 39 110q10 39 25 52q1 25 1 42.5t-1 28.5q-12 47 -29 142q-8 125 -41 370l-8 39q82 12 125 19q18 1 31 1q27 0 39 -5q26 -17 26 -35q0 -8 -6 -17q-20 -33 -96 -47q53 -317 65 -516q5 -90 5 -190t-5 -209q-6 -150 -12 -199 q-16 -111 -59 -182q-33 -57 -95.5 -94t-124.5 -37q-106 0 -178 47q-84 53 -106 151q-9 39 -9 70q0 44 19 70q8 12 31 8q23 -2 31 -14q12 -20 18 -65.5t14 -61.5q4 -8 12.5 -27.5t32.5 -56.5q35 -33 95 -34q17 0 36 3q47 6 82 37q43 37 72 112q53 135 53 340q0 9 1 19 q0 40 -7 98q-49 -80 -94 -108q-57 -36 -126 -36q-10 0 -22 1q-102 6 -165 92q-35 47 -64 123q-10 29 -25 84q0 12 4.5 35.5t4.5 35.5q0 16 -7.5 50t-5.5 53q6 63 19 192q2 35 8 105q-14 10 -14 8q-4 -4 -15 -12q-6 -2 -18 5t-16 7q-14 2 -39 8q-9 6 -9 39zM262 1124 q6 18 17 53q2 14 8 46q10 6 27 22q-2 8 -2 25q8 8 20 18q16 18 33.5 61.5t30.5 59.5q10 10 22 21.5t10 27.5q-2 2 -4 8q-2 8 2 11.5t10 15.5q6 6 21 2q61 -14 63 -47q2 -10 -10 -26.5t-16 -22.5q-2 -23 -15 -66q-23 -20 -53 -70q-29 -78 -59 -133q-2 -23 -23 -47 q-23 -4 -59 17q-23 14 -23 24z" />
<glyph unicode="&#xfe;" horiz-adv-x="722" d="M-45 -131q-2 41 12 59q8 8 25 4q27 -6 28 -6q39 0 89 -6q-2 12 -3 25q0 27 5 69q4 31 12 134.5t22 306.5q-4 78 -6 231q2 33 17 127q12 80 10 129l10 92q6 27 14 111q2 43 13 125q-39 -10 -49 -8q-23 8 -66 18q-20 -6 -55 0q-27 18 -10 80q4 14 14 16q6 -4 18 -2 q0 2 15 -8q8 -6 16 -6t22.5 5t18.5 5q6 0 72 -6q43 6 90 10q6 -6 20 -12q12 6 35 10q12 -6 41 -14q18 -2 53 -12q10 -4 11 -31q2 -41 -13 -60q-6 -8 -24 -4q-27 6 -29 6q-37 0 -86 7v-25q0 -25 -2 -70t-4 -147q-2 -35 -8 -84l16 14q23 23 70 60q47 29 104 20q63 -8 113 -57 q86 -84 112 -232q12 -68 9 -118q0 -61 -9 -148q-2 -14 -20 -74q0 -4 -4 -12q-8 -25 -60 -94q-57 -78 -107 -106.5t-101 -24.5q-100 10 -168 119q-12 -66 -13 -76q4 -143 -24 -293q41 10 51 8q20 -6 63 -18q20 6 56 0q27 -18 12 -78q-4 -14 -14 -16q-8 2 -19 0q-2 -2 -16 8 q-6 6 -17 6q-6 2 -20 -3t-21 -7q-6 0 -71 4q-41 -4 -90 -8q-6 4 -21 12q-10 -8 -33 -12q-14 6 -41 14q-20 2 -55 12q-10 4 -10 31zM256 614q-10 -137 66 -260q47 -76 96 -88q43 -10 90 31q33 29 65 111q10 31 33 92q4 14 8 61q2 47 0 64l-12 98q-16 92 -63 147 q-35 45 -78 50q-66 6 -123 -76q-70 -97 -82 -230z" />
<glyph unicode="&#xff;" horiz-adv-x="761" d="M-9 901q0 37 9 53q2 6 16 4q18 -4 20 -4q12 1 26 2q34 0 75 -8q20 8 59 17q14 -6 45 -15q14 4 39 2q10 -10 12 -49q0 -29 -4 -41q-8 0 -20 -6q-2 -4 -10 8q-6 4 -13 4q-6 0 -15 -5t-15 -7t-21 -2q4 -14 4 -33q0 -27 -6 -102q0 -90 -2 -273v-14q0 -134 37 -194 q25 -37 55 -50q16 -6 58 -4q119 4 159 66q12 18 39 110q10 39 25 52q1 25 1 42.5t-1 28.5q-12 47 -29 142q-8 125 -41 370l-8 39q82 12 125 19q18 1 31 1q27 0 39 -5q26 -17 26 -35q0 -8 -6 -17q-20 -33 -96 -47q53 -317 65 -516q5 -90 5 -190t-5 -209q-6 -150 -12 -199 q-16 -111 -59 -182q-33 -57 -95.5 -94t-124.5 -37q-106 0 -178 47q-84 53 -106 151q-9 39 -9 70q0 44 19 70q8 12 31 8q23 -2 31 -14q12 -20 18 -65.5t14 -61.5q4 -8 12.5 -27.5t32.5 -56.5q35 -33 95 -34q17 0 36 3q47 6 82 37q43 37 72 112q53 135 53 340q0 9 1 19 q0 40 -7 98q-49 -80 -94 -108q-57 -36 -126 -36q-10 0 -22 1q-102 6 -165 92q-35 47 -64 123q-10 29 -25 84q0 12 4.5 35.5t4.5 35.5q0 16 -7.5 50t-5.5 53q6 63 19 192q2 35 8 105q-14 10 -14 8q-4 -4 -15 -12q-6 -2 -18 5t-16 7q-14 2 -39 8q-9 6 -9 39zM153 1196 q4 27 31 48.5t53 21.5q35 0 50 -15q6 -16 21 -41.5t1 -35.5q-10 -18 -33 -47q-14 -12 -41 -2q-82 32 -82 71zM358 1196q4 27 31 48.5t53 21.5q35 0 49 -15q6 -16 21.5 -41.5t1.5 -35.5q-10 -18 -33 -47q-14 -12 -41 -2q-82 32 -82 71z" />
<glyph unicode="&#x131;" horiz-adv-x="403" d="M-14 674q2 27 18 37q25 14 113 14q66 -2 141 4q4 -63 0 -170.5t0 -173.5q2 -31 10 -102q10 -82 11 -97q-6 -82 0 -125q0 -6 8 -43q4 -23 2 -36q16 8 26 8q25 -4 72 -8q6 0 31 6q18 6 28 0q31 -14 23 -76q-2 -16 -11 -16t-20 -5q-4 -4 -12 0q-20 10 -25 11q-18 -8 -55 -19 q-45 0 -133 -14q-10 -6 -27 -12q-4 0 -12 5t-12 5q-6 0 -16.5 -8.5t-16.5 -8.5q-10 0 -25.5 4.5t-21.5 6.5q-20 -2 -59 2q-12 4 -17 31q-6 33 0 49t19 18q14 -2 45 -2q70 8 125 8q0 18 -2 51v-2l-3 2v2v5q0 14 3 16q0 2 -3 39q0 4 -8 46t-8 112q0 41 -6 143q-6 20 -12 76 q6 23 8 67q-6 12 -14 37q0 2 6 55q-12 2 -115 7q-18 0 -45 10q-12 16 -10 41z" />
<glyph unicode="&#x152;" horiz-adv-x="1404" d="M16 618q-12 231 33 367q16 45 60 111q27 47 94 127q68 59 143 59q100 0 180 -82q66 -66 111 -166q-6 102 -14 312q164 -2 489 -3q76 4 227 11q6 -147 2 -238q-4 -57 -10 -90q-10 -43 -37 -51q-23 -8 -36 18.5t-15 83.5q2 33 0 97q-2 -16 -2 26q0 37 4 55q-57 16 -225 0 q-145 -12 -285 -16q2 -182 8 -545q6 -4 13 -4q8 6 26 15q31 -2 92 8q20 10 17 10q4 0 10 -6t8 -4q4 6 15 14q6 2 18 -4t18.5 -7t20.5 -1q-6 12 -6 22t7 29.5t7 28.5q-6 18 -4 49q10 14 49 16q43 2 45 -12q0 -6 4 -17q2 -2 -6 -12t-8 -16q0 -8 7 -19.5t7 -17.5q-4 -39 7 -119 q10 -27 10 -22q-4 -6 -10 -19q6 -10 14 -28q-6 -12 -14 -39q0 -16 -7 -47q-4 -10 -39 -13q-35 -2 -53 8q-8 4 -4 21q4 23 4 27q-4 35 -2 77q-27 4 -24 4q-41 -6 -99 0q-12 2 -30.5 -8t-26.5 -10t-23.5 6t-21.5 6t-16 -4q8 -90 18 -270q0 -29 -4 -72q-4 -57 -4 -74 q-2 -23 4 -59l10 -61q41 4 268 -13q47 -2 205 -8q0 49 4 146l4 53q2 27 15.5 46t38.5 19q10 0 14 -6q25 -37 27 -149q0 -72 -5 -211q-227 4 -684 12q-2 125 -2 291l-4 -10q-63 -135 -123.5 -189.5t-134.5 -58.5q-137 -4 -239 147q-124 182 -140 479zM106 623 q6 -221 117 -390q88 -135 170 -139q63 -2 118.5 63.5t88.5 207.5q2 4 31 172q4 18 -2 96q-4 72 -8 88q-8 45 -27 133q-39 156 -107.5 235.5t-136.5 77.5q-100 -4 -175 -165.5t-69 -378.5z" />
<glyph unicode="&#x153;" horiz-adv-x="1157" d="M16 483q-12 190 37 289q12 25 62 80q18 27 65 72q49 39 109 37q68 0 127 -46q78 -57 127 -165q35 111 90 170q49 49 110 61q80 14 148 -12q53 -18 98 -70q88 -102 111 -356l-53 -6q-94 -16 -187 -33q-119 -18 -184 -17q-45 2 -62 17l2 -27q-2 -37 0 -110q4 -20 30 -74.5 t38 -75.5q23 -39 49 -61q37 -31 86 -31q96 4 137 80q4 10 25 80q14 49 41 63q16 8 29 4q10 -8 19 -38.5t5 -67.5q-16 -111 -106 -174q-55 -39 -142 -45q-76 -8 -141 28q-86 51 -137 178q-27 -43 -51 -83q-33 -47 -68 -74q-47 -37 -102 -39q-113 -4 -197 104 q-103 129 -115 342zM106 487q0 -145 103 -270q61 -74 117 -78q51 -4 96 47q35 37 59 129q6 35 23 103l2 8q-6 53 -2 106q-10 41 -33 125q-31 96 -88 150q-43 41 -92 39q-72 -2 -127 -101q-58 -104 -58 -258zM612 559q18 16 76 25q29 2 84 10q-10 0 25 4q27 4 55 2 q57 -6 152 14q-35 156 -113 228q-55 51 -135 43q-43 -6 -78 -54q-47 -63 -62 -163q-4 -43 -4 -109z" />
<glyph unicode="&#x178;" horiz-adv-x="757" d="M-70 1139q0 43 9 44t20 5q2 2 14 -8q6 -6 14 -6q6 0 18.5 6t16.5 6q4 2 62 0q37 6 77 14q6 -6 19 -12q8 8 29 14q12 -6 36 -14q16 0 47 -8q8 -4 11 -39q0 -37 -11 -54q-4 -8 -20 -4q-23 4 -25 4q-13 -1 -27 0q-28 0 -61 3q12 -25 45 -84q2 -4 9 -13q6 -14 8 -37 q6 -45 47 -108q33 -49 160 -326q41 86 65 152q8 33 31 94q12 14 33 43q4 8 18 66q12 41 45 98q53 88 58 96q18 39 59 121q-6 -2 -8 -2q-18 6 -58 16q-16 -6 -47 -2q-12 8 -14 47q0 43 9 44t20 5q2 2 14 -8q6 -6 14 -6t19.5 6t15.5 6q6 2 64 0q37 6 75 13q6 -4 19 -11 q10 6 28 13l37 -13q16 0 47 -8q10 -6 11 -39v-11q0 -28 -9 -42q-6 -8 -20 -4q-23 4 -27 4q-11 -1 -23 0q-36 0 -79 4q4 -14 2 -41q-2 -14 -14 -47q-27 -51 -75 -154.5t-144 -314.5q-43 -84 -127 -256q6 -4 -5 -12h-2l-6 -14v-5q0 -8 6.5 -20t6.5 -18q1 -3 1 -20t-1 -48 q8 -41 14 -86q-4 -6 -10 -21q6 -10 14 -30q-6 -14 -14 -41q0 -20 -9 -53q10 4 15 4q6 -4 20 -13q10 8 33 15q12 -6 41 -15q18 -2 53 -10q10 -4 13 -39q0 -37 -13 -53q-4 -5 -12 -6q-4 0 -10 2q-27 6 -29 6h-22q-55 0 -123 8q-27 -6 -84 -14q-20 8 -64 16q-20 -4 -55 0 q-14 10 -14 49q0 29 6 39.5t14 7.5q10 0 23 -2q4 -6 22 -12q8 0 21.5 5t19.5 7q10 0 66 -4q-6 4 -13.5 8.5t-3.5 20.5q6 27 4 29v24q0 51 6 115q2 14 -8 41t-10 39t7 32.5t7 30.5q-4 18 -2 54q-41 66 -80 161l-65 168q-47 82 -121 258q-12 31 -27 90q-18 -8 -28 -8 q-18 8 -58 17q-16 -6 -47 -2q-14 8 -14 47zM252 1433q4 27 31 48.5t53 21.5q35 0 50 -15q6 -16 21 -41.5t1 -35.5q-10 -18 -33 -47q-14 -12 -41 -2q-82 32 -82 71zM457 1433q4 27 31 48.5t53 21.5q35 0 49 -15q6 -16 21.5 -41.5t1.5 -35.5q-10 -18 -33 -47q-14 -12 -41 -2 q-82 32 -82 71z" />
<glyph unicode="&#x2c6;" horiz-adv-x="512" d="M16 1423q-2 16 18.5 29.5t39.5 24.5q51 39 172 110q27 -10 80 -37q20 -23 65 -67q20 -10 42 -23.5t22 -34.5q0 -47 -45 -65q2 0 -25 10v-2l-3 5q-3 5 -7 13q-6 18 -27 23q-27 4 -55 29q-25 18 -49 39q-14 -18 -45 -50q-8 2 -21 3q-4 -10 -16 -29q-14 -4 -45 -15 q-12 -8 -27.5 -17t-28.5 -7q-8 2 -25.5 24.5t-19.5 36.5z" />
<glyph unicode="&#x2da;" horiz-adv-x="333" d="M16 1458q-8 74 13 107l43 37q35 33 63 32q29 -12 51 -26q55 -31 70 -60q23 -41 16 -61q0 -12 4 -27q4 -8 -2 -53l-2 -4q-2 -10 -26 -35q-49 -53 -84 -59q-53 0 -86 28q-50 43 -60 121zM92 1464q2 -51 64 -69q18 -4 28 10q25 35 25 43q0 16 -8 31.5t-23 42.5 q-14 18 -39 16q-20 0 -34.5 -24.5t-12.5 -49.5z" />
<glyph unicode="&#x2dc;" horiz-adv-x="561" d="M16 1458q0 2 23 29q-2 0 8 6h14q16 0 31 10q39 29 74 29q27 0 76 -34t77 -32q8 -10 23 -12q6 8 25.5 8t23.5 2q16 14 51 27q8 0 33 -16l10 -7l9 -8q23 -16 10 -37q-8 -16 -35 -30q-86 -47 -133 -43q-43 2 -80 28q-18 16 -57 43q-12 -2 -39 2q-23 12 -35 4t-26.5 -18 t-24.5 -8q-54 18 -58 57z" />
<glyph unicode="&#x2000;" horiz-adv-x="913" />
<glyph unicode="&#x2001;" horiz-adv-x="1826" />
<glyph unicode="&#x2002;" horiz-adv-x="913" />
<glyph unicode="&#x2003;" horiz-adv-x="1826" />
<glyph unicode="&#x2004;" horiz-adv-x="608" />
<glyph unicode="&#x2005;" horiz-adv-x="456" />
<glyph unicode="&#x2006;" horiz-adv-x="303" />
<glyph unicode="&#x2007;" horiz-adv-x="303" />
<glyph unicode="&#x2008;" horiz-adv-x="227" />
<glyph unicode="&#x2009;" horiz-adv-x="364" />
<glyph unicode="&#x200a;" horiz-adv-x="100" />
<glyph unicode="&#x2010;" horiz-adv-x="589" d="M16 537q4 10 17 10q8 -2 18 0q2 2 18.5 -7.5t30.5 -4.5q18 6 56 12q16 2 50 -1t48 -3t44 7t38 7q8 -6 24 -12q12 8 41 14q16 -6 52 -14q23 0 65 -8q12 -6 14 -33q4 -55 -18 -64q-20 2 -59 4q-76 -2 -176 9q-33 -8 -101 -17q-27 6 -80 17q-27 -6 -71 2q-36 29 -11 82z" />
<glyph unicode="&#x2011;" horiz-adv-x="589" d="M16 537q4 10 17 10q8 -2 18 0q2 2 18.5 -7.5t30.5 -4.5q18 6 56 12q16 2 50 -1t48 -3t44 7t38 7q8 -6 24 -12q12 8 41 14q16 -6 52 -14q23 0 65 -8q12 -6 14 -33q4 -55 -18 -64q-20 2 -59 4q-76 -2 -176 9q-33 -8 -101 -17q-27 6 -80 17q-27 -6 -71 2q-36 29 -11 82z" />
<glyph unicode="&#x2012;" horiz-adv-x="589" d="M16 537q4 10 17 10q8 -2 18 0q2 2 18.5 -7.5t30.5 -4.5q18 6 56 12q16 2 50 -1t48 -3t44 7t38 7q8 -6 24 -12q12 8 41 14q16 -6 52 -14q23 0 65 -8q12 -6 14 -33q4 -55 -18 -64q-20 2 -59 4q-76 -2 -176 9q-33 -8 -101 -17q-27 6 -80 17q-27 -6 -71 2q-36 29 -11 82z" />
<glyph unicode="&#x2013;" horiz-adv-x="589" d="M32 537q4 10 17 10q8 -2 18 0q2 2 18.5 -7.5t30.5 -4.5q18 6 56 12q16 2 50 -1t48 -3t44 7t38 7q8 -6 24 -12q12 8 41 14q16 -6 52 -14q23 0 65 -8q12 -6 14 -33q4 -55 -18 -64q-20 2 -59 4q-76 -2 -176 9q-33 -8 -101 -17q-27 6 -80 17q-27 -6 -71 2q-36 29 -11 82z" />
<glyph unicode="&#x2014;" horiz-adv-x="1097" d="M32 484q-14 31 0 55q8 16 29 18q8 0 26.5 -1t57.5 -9q18 -6 39 -6q14 0 41 4q59 10 151 6q164 -4 154 -4q20 0 65.5 6.5t69.5 6.5q16 -6 51 -15q10 0 31 6t29 6q23 2 59 -4q51 -10 62 -10q4 0 84 -6q20 0 57 -8q25 -12 18 -55q-4 -33 -45 -37q-35 4 -108 6 q-131 -2 -346 12q-37 2 -101 -4q-70 -8 -102 -8q-51 8 -156 16q-35 -2 -106 -2q-48 4 -60 27z" />
<glyph unicode="&#x2018;" horiz-adv-x="307" d="M25 899q6 18 16 53q2 14 8 45q10 6 27 23q-2 8 -2 24q8 8 20 19q16 18 33.5 61t30.5 60q10 10 22.5 21.5t9.5 27.5q-2 2 -4 8q-2 8 2.5 11t10.5 16q6 6 20 2q61 -14 64 -47q2 -10 -10.5 -26.5t-16.5 -22.5q-2 -23 -14 -66q-23 -20 -54 -70q-29 -78 -59 -133 q-2 -23 -23 -47q-23 -4 -59 16q-22 15 -22 25z" />
<glyph unicode="&#x2019;" horiz-adv-x="307" d="M25 899q6 18 16 53q2 14 8 45q10 6 27 23q-2 8 -2 24q8 8 20 19q16 18 33.5 61t30.5 60q10 10 22.5 21.5t9.5 27.5q-2 2 -4 8q-2 8 2.5 11t10.5 16q6 6 20 2q61 -14 64 -47q2 -10 -10.5 -26.5t-16.5 -22.5q-2 -23 -14 -66q-23 -20 -54 -70q-29 -78 -59 -133 q-2 -23 -23 -47q-23 -4 -59 16q-22 15 -22 25z" />
<glyph unicode="&#x201a;" horiz-adv-x="290" d="M16 -63q6 18 17 53q2 14 8 45q10 6 27 22q-2 8 -2 25q8 8 20 18q16 18 33.5 61.5t30.5 59.5q10 10 22 21.5t10 27.5q-2 2 -4 9q-2 8 2 11t10 15q6 6 21 2q61 -14 63 -47q2 -10 -10 -26.5t-16 -22.5q-2 -23 -15 -66q-23 -20 -53 -69q-29 -78 -59 -133q-2 -23 -23 -47 q-23 -4 -59 16q-23 15 -23 25z" />
<glyph unicode="&#x201c;" horiz-adv-x="512" d="M25 899q6 18 16 53q2 14 8 45q10 6 27 23q-2 8 -2 24q8 8 20 19q16 18 33.5 61t30.5 60q10 10 22.5 21.5t9.5 27.5q-2 2 -4 8q-2 8 2.5 11t10.5 16q6 6 20 2q61 -14 64 -47q2 -10 -10.5 -26.5t-16.5 -22.5q-2 -23 -14 -66q-23 -20 -54 -70q-29 -78 -59 -133 q-2 -23 -23 -47q-23 -4 -59 16q-22 15 -22 25zM229 899q6 18 17 53q2 14 8 45q10 6 27 23q-2 8 -2 24q8 8 20 19q16 18 33.5 61t29.5 60q10 10 22.5 21.5t10.5 27.5q-2 2 -4 8q-2 8 2 11t10 16q6 6 21 2q61 -14 63 -47q2 -10 -10 -26.5t-16 -22.5q-2 -23 -15 -66 q-23 -20 -53 -70q-29 -78 -59 -133q-2 -23 -23 -47q-23 -4 -59 16q-23 15 -23 25z" />
<glyph unicode="&#x201d;" horiz-adv-x="512" d="M25 899q6 18 16 53q2 14 8 45q10 6 27 23q-2 8 -2 24q8 8 20 19q16 18 33.5 61t30.5 60q10 10 22.5 21.5t9.5 27.5q-2 2 -4 8q-2 8 2.5 11t10.5 16q6 6 20 2q61 -14 64 -47q2 -10 -10.5 -26.5t-16.5 -22.5q-2 -23 -14 -66q-23 -20 -54 -70q-29 -78 -59 -133 q-2 -23 -23 -47q-23 -4 -59 16q-22 15 -22 25zM229 899q6 18 17 53q2 14 8 45q10 6 27 23q-2 8 -2 24q8 8 20 19q16 18 33.5 61t29.5 60q10 10 22.5 21.5t10.5 27.5q-2 2 -4 8q-2 8 2 11t10 16q6 6 21 2q61 -14 63 -47q2 -10 -10 -26.5t-16 -22.5q-2 -23 -15 -66 q-23 -20 -53 -70q-29 -78 -59 -133q-2 -23 -23 -47q-23 -4 -59 16q-23 15 -23 25z" />
<glyph unicode="&#x201e;" horiz-adv-x="495" d="M16 -63q6 18 17 53q2 14 8 45q10 6 27 22q-2 8 -2 25q8 8 20 18q16 18 33.5 61.5t30.5 59.5q10 10 22 21.5t10 27.5q-2 2 -4 9q-2 8 2 11t10 15q6 6 21 2q61 -14 63 -47q2 -10 -10 -26.5t-16 -22.5q-2 -23 -15 -66q-23 -20 -53 -69q-29 -78 -59 -133q-2 -23 -23 -47 q-23 -4 -59 16q-23 15 -23 25zM221 -63q6 18 17 53q2 14 8 45q10 6 26 22q-2 8 -2 25q8 8 21 18q16 18 33.5 61.5t29.5 59.5q10 10 22.5 21.5t10.5 27.5q-2 2 -4 9q-2 8 2 11t10 15q6 6 21 2q61 -14 63 -47q2 -10 -10 -26.5t-16 -22.5q-2 -23 -15 -66q-23 -20 -53 -69 q-29 -78 -59 -133q-2 -23 -23 -47q-23 -4 -59 16q-23 15 -23 25z" />
<glyph unicode="&#x2022;" horiz-adv-x="419" d="M16 627q-12 96 17 141q20 16 57 49q45 43 84 43q39 -16 70 -35q74 -43 92 -80q29 -55 20 -81q4 -33 6 -35q6 -10 -4 -72v-6q-4 -14 -36 -47q-66 -68 -113 -76q-68 0 -113 37q-68 58 -80 162z" />
<glyph unicode="&#x2026;" horiz-adv-x="720" d="M16 47q4 27 31 48.5t53 21.5q35 0 50 -15q6 -16 21 -41.5t1 -35.5q-10 -18 -33 -48q-14 -12 -41 -2q-82 33 -82 72zM262 47q4 27 30.5 48.5t53.5 21.5q35 0 49 -15q6 -16 21.5 -41.5t1.5 -35.5q-10 -18 -33 -48q-14 -12 -41 -2q-82 33 -82 72zM508 47q4 27 30.5 48.5 t53.5 21.5q35 0 49 -15q6 -16 21.5 -41.5t1.5 -35.5q-10 -18 -33 -48q-14 -12 -41 -2q-82 33 -82 72z" />
<glyph unicode="&#x202f;" horiz-adv-x="364" />
<glyph unicode="&#x2039;" horiz-adv-x="454" d="M16 573q29 51 93 148q41 43 116 129q4 4 43 63q25 39 51 56q16 10 31 6q18 -2 34.5 -18.5t12.5 -32.5l-30 -43q-2 -4 -8.5 -10.5t-20.5 -16.5q-27 -18 -45 -57q-25 -49 -78 -115q-82 -102 -86 -111q31 -31 88 -98q4 -18 19 -47q14 -10 40 -33q4 -6 43 -78q6 -12 50 -79 q27 -41 26 -54q0 -37 -43 -47q-23 -4 -41 10.5t-39 49.5q-27 47 -32 57q-62 79 -224 321z" />
<glyph unicode="&#x203a;" horiz-adv-x="454" d="M16 924q-4 16 12.5 32.5t34.5 18.5q14 4 31 -6q27 -16 51 -56q39 -59 43 -63q41 -41 117 -129q29 -49 92 -148q-72 -109 -223 -321q-18 -41 -74 -107q-16 -14 -39 -10q-43 10 -43 47q0 12 27 54q18 25 51 79q10 27 41 78q14 10 41 33q4 16 19 47q31 31 90 98 q-63 72 -166 226q-18 39 -45 57q-8 4 -17.5 12t-11.5 15q-15 12 -31 43z" />
<glyph unicode="&#x2044;" horiz-adv-x="903" d="M125 98q18 35 55 103q66 141 185 362q20 37 46.5 112t43.5 107q33 51 94 158q14 39 49 113q27 49 55 51q33 2 52 -23q12 -20 -15 -67q-8 -14 -37 -56q-25 -31 -41 -81q-23 -68 -69 -164l-82 -160q-16 -51 -58 -150q-12 -14 -34 -47q-6 -23 -21 -67q-25 -41 -74 -121 q-2 -6 -47 -86q-10 -23 -37 -59q-23 -20 -56.5 2t-8.5 73z" />
<glyph unicode="&#x205f;" horiz-adv-x="456" />
<glyph unicode="&#x2122;" horiz-adv-x="1298" d="M16 956q-6 6 3.5 40t23.5 48q6 6 21.5 -3t19.5 -11q25 -6 51 -16q14 29 37 84q8 29 19.5 59.5t29.5 44.5q10 6 35 2q16 -2 25 -10q29 -18 4 -84q-16 -39 -45 -123q14 2 22 -2q14 -10 45 -29q16 0 43 -12q8 -12 -2 -49q-4 -14 -18 -39q-8 4 -23 0q-2 0 -10 12q-4 6 -10 9 q-12 0 -35 -3q-12 2 -41 13q-31 -106 -47 -174q-16 -74 -17 -125q0 -72 31 -117q33 -14 51 2q10 8 35 80q18 51 41 57q35 10 55 -6q14 -10 13 -37q-6 -18 -15 -51q-2 -4 -2 -8q-4 -12 -51 -72q-41 -51 -74 -65q-37 -14 -86 0q-39 10 -64.5 52t-25.5 122q-2 35 8 149 q0 35 9 101q12 20 26 65q-2 18 2 55q-12 -4 -16 -4q-8 10 -29 25q-14 4 -39 20zM391 975q0 35 21 43l55 6h4h2q16 2 23 -4q20 -12 69 -2q12 -41 19 -94q43 72 137 67q51 -2 92 -33q33 -25 61 -71q16 29 62 76q47 29 104 22q51 -6 90 -39q43 -41 78 -133q4 -14 -1 -43t1 -43 q6 -16 6 -39q0 -20 -6 -55q-10 -45 -12 -58q0 -18 -4 -57q2 0 18 -12q10 -2 27 -10q4 -6 4 -41t-6 -52q-4 -8 -16 -2q-12 4 -78 11q4 0 -29 -15q-6 -4 -17.5 4.5t-15.5 10.5q-8 -4 -22 -4q-8 6 -8 36q0 47 6 60q4 0 10 2q2 4 5 -4t9 -10q4 0 11 6v4q-2 18 6 76q4 51 8 153 q4 92 -19 129q-16 29 -53 19q-23 -4 -48.5 -9.5t-35.5 -17.5t-21.5 -48t-25.5 -44q2 -8 7 -25.5t5 -34.5q0 -18 -8 -53q-6 -41 -8 -53q2 -35 -12 -96q-6 -10 -35 -15q-14 -2 -27 2q-25 4 -30 29q-2 16 4 76q2 53 4 155q4 90 -25 125q-23 27 -57 15q-33 -6 -84 -35 q-4 -20 -14 -59q-8 -29 -29 -37q10 -45 22 -131q-6 -16 -10 -50q8 -18 19 -55q2 -20 -7 -78q-16 2 -116 4h-37q-20 2 -31 13q-18 20 -8 57q6 29 20 31q20 -2 62 -2q0 66 -4 198q-10 33 -25 97q0 16 4 48t4 44q-25 -8 -71 -4q-23 12 -23 49z" />
<glyph unicode="&#xe000;" horiz-adv-x="950" d="M0 950h950v-950h-950v950z" />
<glyph unicode="&#xfb01;" horiz-adv-x="987" d="M588 711q25 14 113 14q16 -1 33 -1q51 0 108 5q2 -32 2 -74.5t-2 -96.5t-2 -97t2 -76q2 -31 10 -102q10 -82 11 -97q-3 -41 -3.5 -72t3.5 -53q0 -6 8 -43q4 -23 2 -36q16 8 26 8q25 -4 72 -8q6 0 31 6q18 6 28 0q24 -11 25 -52q0 -11 -2 -24q-2 -16 -11 -16t-20 -5 q-4 -4 -12 0q-20 10 -25 11q-18 -8 -55 -19q-45 0 -133 -14q-10 -6 -27 -12q-4 0 -12 5t-12 5q-6 0 -16.5 -8.5t-16.5 -8.5q-10 0 -25.5 4.5t-21.5 6.5q-20 -2 -59 2q-12 4 -17 31q-6 33 0 49t19 18q14 -2 45 -2q70 8 125 8q0 18 -2 51v-2l-3 2v2v5q0 14 3 16q0 2 -3 39 q0 4 -8 46t-8 112q0 41 -6 143q-6 20 -12 76q6 23 8 67q-6 12 -14 37q0 2 6 55q-12 2 -115 7q-18 0 -45 10q-11 14 -11 34q0 32 19 44zM664 913q4 33 34.5 58.5t65.5 25.5q41 0 58 -18q6 -18 24 -49q10 -16 10 -28q0 -10 -8 -15q-10 -20 -39 -58q-8 -7 -20 -7t-29 7 q-96 39 -96 84zM-25 635q2 14 9 18q18 2 53 11q43 12 80 20q-23 176 -23 346v29q0 84 4 115q4 63 27 108q45 90 133 107q26 5 51 5q64 0 117 -34q100 -63 139 -205q15 -57 15 -97q0 -31 -9 -52q-13 -26 -34 -26q-10 0 -21 5q-18 8 -27 41q-4 27 -16 84q0 -6 -2 8 q-4 35 -22 94q-23 51 -68 71q-24 11 -51 11q-23 0 -47 -8q-59 -18 -86 -125q-15 -62 -15 -135q0 -40 4 -84q2 -29 21 -121q13 -65 12 -108v-13q23 16 68 35q25 0 75 4q6 2 27 11.5t33 5.5q37 -8 37 -55q0 -11 -2 -23t-11.5 -13t-14.5 -6.5t-15 -1.5q-2 2 -19 7 q-12 0 -30 -13q-25 -14 -33 -16q-29 -6 -90 -21l-11 -2q10 -27 25 -80q6 -59 25 -174q16 -74 49 -219q23 14 67 35q29 2 84 8q8 2 28.5 12.5t31.5 10.5q25 0 36 -27q10 -23 9 -43q0 -22 -17 -24q-29 -8 -26 -9q-4 2 -10 7q-18 4 -41 -11q-35 -23 -39 -22q-51 -10 -148 -45 q-10 -8 -26 -19q-10 2 -29 4q-10 -12 -37 -26q-16 2 -53 0q-72 -12 -68 -13q-12 0 -24.5 29t-8.5 45q2 14 25 20.5t43 12.5q47 14 109 31l-2 2q-10 25 -25 94q-29 123 -78 367q-6 -6 -18 -13q-16 2 -49 2q-66 -6 -62 -8q-12 2 -22 31q-7 20 -8 35q0 5 1 10z" />
<glyph unicode="&#xfb02;" horiz-adv-x="884" d="M469 1114q-1 5 -1 10q0 13 10 21q27 25 106 26q2 0 160 -2q4 -98 10 -292q-1 -27 -1 -62q0 -102 5 -266q2 -41 16 -111q11 -47 11 -95v-15q-3 -65 -3 -118q0 -71 4.5 -120t4.5 -83v-21q-2 -25 -4 -39q10 6 33 12q12 0 36.5 -5t34.5 -5q20 6 60 4q23 -11 23 -49 q0 -13 -3 -29q-2 -14 -12 -18q-8 4 -21 0q-2 -4 -10 0q-20 12 -25 10q-18 -6 -55 -17q-7 0 -14 1q-45 0 -119 -11q-12 -6 -29 -10q-4 0 -11 4t-11 4q-6 2 -17.5 -6t-17.5 -8q-8 0 -23.5 5t-23.5 5q-20 0 -59 4q-10 4 -15 31q-4 33 0 49q6 16 19 19q16 -2 45 -3q51 5 94 5h29 q0 25 -5 73q0 -6 0 8q4 35 11 105q0 6 -13 94q-10 59 -10 160q-2 33 -12 192q-8 47 -19 146q6 31 9 92q-8 29 -17 86q-1 9 0 20q0 28 3 69q5 58 5 83q-33 2 -100 4h-7q-22 0 -56 10q-13 13 -15 33zM-25 635q2 14 9 18q18 2 53 11q43 12 80 20q-23 176 -23 346v29q0 84 4 115 q4 63 27 108q45 90 133 107q26 5 51 5q64 0 117 -34q100 -63 139 -205q15 -57 15 -97q0 -31 -9 -52q-13 -26 -34 -26q-10 0 -21 5q-18 8 -27 41q-4 27 -16 84q0 -6 -2 8q-4 35 -22 94q-23 51 -68 71q-24 11 -51 11q-23 0 -47 -8q-59 -18 -86 -125q-15 -62 -15 -135 q0 -40 4 -84q2 -29 21 -121q13 -65 12 -108v-13q23 16 68 35q25 0 75 4q6 2 27 11.5t33 5.5q37 -8 37 -55q0 -11 -2 -23t-11.5 -13t-14.5 -6.5t-15 -1.5q-2 2 -19 7q-12 0 -30 -13q-25 -14 -33 -16q-29 -6 -90 -21l-11 -2q10 -27 25 -80q6 -59 25 -174q16 -74 49 -219 q23 14 67 35q29 2 84 8q8 2 28.5 12.5t31.5 10.5q25 0 36 -27q10 -23 9 -43q0 -22 -17 -24q-29 -8 -26 -9q-4 2 -10 7q-18 4 -41 -11q-35 -23 -39 -22q-51 -10 -148 -45q-10 -8 -26 -19q-10 2 -29 4q-10 -12 -37 -26q-16 2 -53 0q-72 -12 -68 -13q-12 0 -24.5 29t-8.5 45 q2 14 25 20.5t43 12.5q47 14 109 31l-2 2q-10 25 -25 94q-29 123 -78 367q-6 -6 -18 -13q-16 2 -49 2q-66 -6 -62 -8q-12 2 -22 31q-7 20 -8 35q0 5 1 10z" />
<glyph unicode="&#xfb03;" horiz-adv-x="1570" d="M1171 711q25 14 113 14q16 -1 33 -1q51 0 108 5q2 -32 2 -74.5t-2 -96.5t-2 -97t2 -76q2 -31 10 -102q10 -82 11 -97q-3 -41 -3.5 -72t3.5 -53q0 -6 8 -43q4 -23 2 -36q16 8 26 8q25 -4 72 -8q6 0 31 6q18 6 28 0q24 -11 25 -52q0 -11 -2 -24q-2 -16 -11 -16t-20 -5 q-4 -4 -12 0q-20 10 -25 11q-18 -8 -55 -19q-45 0 -133 -14q-10 -6 -27 -12q-4 0 -12 5t-12 5q-6 0 -16.5 -8.5t-16.5 -8.5q-10 0 -25.5 4.5t-21.5 6.5q-20 -2 -59 2q-12 4 -17 31q-6 33 0 49t19 18q14 -2 45 -2q70 8 125 8q0 18 -2 51v-2l-3 2v2v5q0 14 3 16q0 2 -3 39 q0 4 -8 46t-8 112q0 41 -6 143q-6 20 -12 76q6 23 8 67q-6 12 -14 37q0 2 6 55q-12 2 -115 7q-18 0 -45 10q-11 14 -11 34q0 32 19 44zM1247 913q4 33 34.5 58.5t65.5 25.5q41 0 58 -18q6 -18 24 -49q10 -16 10 -28q0 -10 -8 -15q-10 -20 -39 -58q-8 -7 -20 -7t-29 7 q-96 39 -96 84zM559 635q2 14 9 18q18 2 53 11q43 12 80 20q-23 176 -23 346v29q0 84 4 115q4 63 27 108q45 90 133 107q26 5 51 5q64 0 117 -34q100 -63 139 -205q15 -57 15 -97q0 -31 -9 -52q-13 -26 -34 -26q-10 0 -21 5q-18 8 -27 41q-4 27 -16 84q0 -6 -2 8 q-4 35 -22 94q-23 51 -68 71q-24 11 -51 11q-23 0 -47 -8q-59 -18 -86 -125q-15 -62 -15 -135q0 -40 4 -84q2 -29 21 -121q13 -65 12 -108v-13q23 16 68 35q25 0 75 4q6 2 27 11.5t33 5.5q37 -8 37 -55q0 -11 -2 -23t-11.5 -13t-14.5 -6.5t-15 -1.5q-2 2 -19 7 q-12 0 -30 -13q-25 -14 -33 -16q-29 -6 -90 -21l-11 -2q10 -27 25 -80q6 -59 25 -174q16 -74 49 -219q23 14 67 35q29 2 84 8q8 2 28.5 12.5t31.5 10.5q25 0 36 -27q10 -23 9 -43q0 -22 -17 -24q-29 -8 -26 -9q-4 2 -10 7q-18 4 -41 -11q-35 -23 -39 -22q-51 -10 -148 -45 q-10 -8 -26 -19q-10 2 -29 4q-10 -12 -37 -26q-16 2 -53 0q-72 -12 -68 -13q-12 0 -24.5 29t-8.5 45q2 14 25 20.5t43 12.5q47 14 109 31l-2 2q-10 25 -25 94q-29 123 -78 367q-6 -6 -18 -13q-16 2 -49 2q-66 -6 -62 -8q-12 2 -22 31q-7 20 -8 35q0 5 1 10zM-25 635 q2 14 9 18q18 2 53 11q43 12 80 20q-23 176 -23 346v29q0 84 4 115q4 63 27 108q45 90 133 107q26 5 51 5q64 0 117 -34q100 -63 139 -205q15 -57 15 -97q0 -31 -9 -52q-13 -26 -34 -26q-10 0 -21 5q-18 8 -27 41q-4 27 -16 84q0 -6 -2 8q-4 35 -22 94q-23 51 -68 71 q-24 11 -51 11q-23 0 -47 -8q-59 -18 -86 -125q-15 -62 -15 -135q0 -40 4 -84q2 -29 21 -121q13 -65 12 -108v-13q23 16 68 35q25 0 75 4q6 2 27 11.5t33 5.5q37 -8 37 -55q0 -11 -2 -23t-11.5 -13t-14.5 -6.5t-15 -1.5q-2 2 -19 7q-12 0 -30 -13q-25 -14 -33 -16 q-29 -6 -90 -21l-11 -2q10 -27 25 -80q6 -59 25 -174q16 -74 49 -219q23 14 67 35q29 2 84 8q8 2 28.5 12.5t31.5 10.5q25 0 36 -27q10 -23 9 -43q0 -22 -17 -24q-29 -8 -26 -9q-4 2 -10 7q-18 4 -41 -11q-35 -23 -39 -22q-51 -10 -148 -45q-10 -8 -26 -19q-10 2 -29 4 q-10 -12 -37 -26q-16 2 -53 0q-72 -12 -68 -13q-12 0 -24.5 29t-8.5 45q2 14 25 20.5t43 12.5q47 14 109 31l-2 2q-10 25 -25 94q-29 123 -78 367q-6 -6 -18 -13q-16 2 -49 2q-66 -6 -62 -8q-12 2 -22 31q-7 20 -8 35q0 5 1 10z" />
<glyph unicode="&#xfb04;" horiz-adv-x="1468" d="M1052 1114q-1 5 -1 10q0 13 10 21q27 25 106 26q2 0 160 -2q4 -98 10 -292q-1 -27 -1 -62q0 -102 5 -266q2 -41 16 -111q11 -47 11 -95v-15q-3 -65 -3 -118q0 -71 4.5 -120t4.5 -83v-21q-2 -25 -4 -39q10 6 33 12q12 0 36.5 -5t34.5 -5q20 6 60 4q23 -11 23 -49 q0 -13 -3 -29q-2 -14 -12 -18q-8 4 -21 0q-2 -4 -10 0q-20 12 -25 10q-18 -6 -55 -17q-7 0 -14 1q-45 0 -119 -11q-12 -6 -29 -10q-4 0 -11 4t-11 4q-6 2 -17.5 -6t-17.5 -8q-8 0 -23.5 5t-23.5 5q-20 0 -59 4q-10 4 -15 31q-4 33 0 49q6 16 19 19q16 -2 45 -3q51 5 94 5h29 q0 25 -5 73q0 -6 0 8q4 35 11 105q0 6 -13 94q-10 59 -10 160q-2 33 -12 192q-8 47 -19 146q6 31 9 92q-8 29 -17 86q-1 9 0 20q0 28 3 69q5 58 5 83q-33 2 -100 4h-7q-22 0 -56 10q-13 13 -15 33zM559 635q2 14 9 18q18 2 53 11q43 12 80 20q-23 176 -23 346v29q0 84 4 115 q4 63 27 108q45 90 133 107q26 5 51 5q64 0 117 -34q100 -63 139 -205q15 -57 15 -97q0 -31 -9 -52q-13 -26 -34 -26q-10 0 -21 5q-18 8 -27 41q-4 27 -16 84q0 -6 -2 8q-4 35 -22 94q-23 51 -68 71q-24 11 -51 11q-23 0 -47 -8q-59 -18 -86 -125q-15 -62 -15 -135 q0 -40 4 -84q2 -29 21 -121q13 -65 12 -108v-13q23 16 68 35q25 0 75 4q6 2 27 11.5t33 5.5q37 -8 37 -55q0 -11 -2 -23t-11.5 -13t-14.5 -6.5t-15 -1.5q-2 2 -19 7q-12 0 -30 -13q-25 -14 -33 -16q-29 -6 -90 -21l-11 -2q10 -27 25 -80q6 -59 25 -174q16 -74 49 -219 q23 14 67 35q29 2 84 8q8 2 28.5 12.5t31.5 10.5q25 0 36 -27q10 -23 9 -43q0 -22 -17 -24q-29 -8 -26 -9q-4 2 -10 7q-18 4 -41 -11q-35 -23 -39 -22q-51 -10 -148 -45q-10 -8 -26 -19q-10 2 -29 4q-10 -12 -37 -26q-16 2 -53 0q-72 -12 -68 -13q-12 0 -24.5 29t-8.5 45 q2 14 25 20.5t43 12.5q47 14 109 31l-2 2q-10 25 -25 94q-29 123 -78 367q-6 -6 -18 -13q-16 2 -49 2q-66 -6 -62 -8q-12 2 -22 31q-7 20 -8 35q0 5 1 10zM-25 635q2 14 9 18q18 2 53 11q43 12 80 20q-23 176 -23 346v29q0 84 4 115q4 63 27 108q45 90 133 107q26 5 51 5 q64 0 117 -34q100 -63 139 -205q15 -57 15 -97q0 -31 -9 -52q-13 -26 -34 -26q-10 0 -21 5q-18 8 -27 41q-4 27 -16 84q0 -6 -2 8q-4 35 -22 94q-23 51 -68 71q-24 11 -51 11q-23 0 -47 -8q-59 -18 -86 -125q-15 -62 -15 -135q0 -40 4 -84q2 -29 21 -121q13 -65 12 -108v-13 q23 16 68 35q25 0 75 4q6 2 27 11.5t33 5.5q37 -8 37 -55q0 -11 -2 -23t-11.5 -13t-14.5 -6.5t-15 -1.5q-2 2 -19 7q-12 0 -30 -13q-25 -14 -33 -16q-29 -6 -90 -21l-11 -2q10 -27 25 -80q6 -59 25 -174q16 -74 49 -219q23 14 67 35q29 2 84 8q8 2 28.5 12.5t31.5 10.5 q25 0 36 -27q10 -23 9 -43q0 -22 -17 -24q-29 -8 -26 -9q-4 2 -10 7q-18 4 -41 -11q-35 -23 -39 -22q-51 -10 -148 -45q-10 -8 -26 -19q-10 2 -29 4q-10 -12 -37 -26q-16 2 -53 0q-72 -12 -68 -13q-12 0 -24.5 29t-8.5 45q2 14 25 20.5t43 12.5q47 14 109 31l-2 2 q-10 25 -25 94q-29 123 -78 367q-6 -6 -18 -13q-16 2 -49 2q-66 -6 -62 -8q-12 2 -22 31q-7 20 -8 35q0 5 1 10z" />
</font>
</defs>
</svg>
