<?xml version="1.0" standalone="no"?>
<!DOCTYPE svg PUBLIC "-//W3C//DTD SVG 1.1//EN" "http://www.w3.org/Graphics/SVG/1.1/DTD/svg11.dtd" >
<svg xmlns="http://www.w3.org/2000/svg">
<metadata>
This is a custom SVG webfont generated by Font Squirrel.
Copyright   : Another friendly font from Allen R Walden UNPROTECTED  Please distribute freely
</metadata>
<defs>
<font id="FinalFrontierRegular" horiz-adv-x="1094" >
<font-face units-per-em="2048" ascent="1638" descent="-410" />
<missing-glyph horiz-adv-x="512" />
<glyph unicode=" "  horiz-adv-x="512" />
<glyph unicode="&#x09;" horiz-adv-x="512" />
<glyph unicode="&#xa0;" horiz-adv-x="512" />
<glyph unicode="!" horiz-adv-x="631" d="M150 1343v15h323v-15l-33 -24q-10 -9 -14 -16.5t-4 -18.5l-37 -944h-143l-43 944q0 11 -4 18.5t-15 16.5zM176 111q0 54 40 93.5t95 39.5q54 0 93.5 -40t39.5 -93q0 -55 -39 -95.5t-94 -40.5t-95 40t-40 96z" />
<glyph unicode="&#x22;" horiz-adv-x="643" d="M86 864v557h154v-557h-154zM403 864v557h156v-557h-156z" />
<glyph unicode="#" horiz-adv-x="1575" d="M66 422l59 151h287l94 279h-307l57 145h305l152 424h166l-150 -424h281l151 424h166l-149 -424h282l-55 -145h-283l-96 -279h303l-59 -151h-299l-148 -422h-168l150 422h-281l-149 -422h-166l145 422h-288zM578 571h284l96 281h-284z" />
<glyph unicode="$" horiz-adv-x="893" d="M-29 0l88 195h260v571l-100 92q-65 60 -98 126t-33 138q0 108 60.5 183.5t170.5 107.5v146h117v-138h340l-127 -243h-10v22q0 13 -9 21t-24 8h-166q-71 0 -111 -30.5t-40 -84.5q0 -26 17.5 -56.5t49.5 -58.5l136 -118q182 -160 237 -255t55 -210q0 -154 -91 -260.5 t-257 -147.5v-135h-117v127h-348zM436 201q72 15 111 70t39 141q0 68 -36 130.5t-114 129.5v-471z" />
<glyph unicode="%" horiz-adv-x="1731" d="M76 1110q0 140 98 238t238 98t239 -98t99 -238t-99.5 -239t-238.5 -99q-140 0 -238 99t-98 239zM250 1110q0 -68 47 -115t115 -47q67 0 114 47t47 115t-47 115t-114 47q-68 0 -115 -47t-47 -115zM362 0l732 1328q7 9 10.5 18.5t3.5 17.5q0 7 -4 14t-11 11l-26 18v14h274 l-729 -1325q-7 -14 -10.5 -23.5t-3.5 -13.5q0 -7 4.5 -14.5t11.5 -11.5l25 -19v-14h-277zM963 313q0 140 99 238t238 98q140 0 238 -98t98 -238t-98 -239t-238 -99q-139 0 -238 99.5t-99 238.5zM1139 313q0 -67 47 -114t114 -47q68 0 115 47t47 114q0 68 -47 115t-115 47 q-67 0 -114 -47t-47 -115z" />
<glyph unicode="&#x26;" horiz-adv-x="1442" d="M115 463q0 131 50 229.5t154 171.5q-27 41 -41 84.5t-14 91.5q0 136 102.5 228t249.5 92h330l-133 -246h-12l2 21v4q0 12 -9.5 19t-25.5 7h-133q-81 0 -128.5 -42t-47.5 -113q0 -54 34.5 -105.5t104.5 -101.5v-19q-128 0 -206.5 -82.5t-78.5 -218.5q0 -144 86 -227.5 t234 -83.5q141 0 224 86.5t83 230.5q0 22 -2 44.5t-6 44.5h-135q-20 0 -31 -4t-25 -15l-36 -33l-13 6l127 240h473q19 0 30 3t28 16l32 24l13 -6l-123 -231h-144q3 -16 4 -34.5t1 -56.5q0 -225 -143.5 -366t-373.5 -141q-219 0 -360 136t-141 347z" />
<glyph unicode="'" horiz-adv-x="334" d="M90 879v557h154v-557h-154z" />
<glyph unicode="(" horiz-adv-x="729" d="M133 713q0 193 77 375t222 333h273v-14q-192 -126 -292 -300.5t-100 -383.5q0 -227 98 -404t294 -305v-14h-273q-146 151 -222.5 333.5t-76.5 379.5z" />
<glyph unicode=")" horiz-adv-x="717" d="M25 0v14q195 128 293 305.5t98 403.5q0 209 -100 383.5t-291 300.5v14h274q143 -149 220 -330.5t77 -369.5q0 -204 -75 -386t-222 -335h-274z" />
<glyph unicode="*" horiz-adv-x="877" d="M121 987l190 45q16 4 26.5 16.5t10.5 26.5q0 17 -10.5 30.5t-25.5 16.5l-191 45l78 148l145 -144q8 -7 17 -11.5t18 -4.5q14 0 21.5 8.5t7.5 24.5q0 7 -1 13l-2 12l-47 208h162l-47 -209q-1 -5 -2.5 -13.5t-1.5 -10.5q0 -16 7.5 -24.5t21.5 -8.5q9 0 19 4.5t18 11.5 l143 144l80 -148l-193 -45q-15 -3 -25 -16t-10 -31q0 -16 9.5 -27.5t26.5 -15.5l192 -45l-80 -149l-143 145q-8 8 -18 12t-19 4q-14 0 -21.5 -8.5t-7.5 -23.5q0 -2 1.5 -11t2.5 -14l47 -211h-162l48 212q1 6 1.5 11.5t0.5 12.5q0 15 -7.5 23.5t-21.5 8.5q-9 0 -18 -4 t-17 -12l-145 -145z" />
<glyph unicode="+" horiz-adv-x="1421" d="M113 528v166h514v527h170v-527h514v-166h-514v-528h-170v528h-514z" />
<glyph unicode="," horiz-adv-x="631" d="M127 -154l65 274q3 12 5 24t2 22q0 9 -5 17t-16 14v14h271l-226 -365h-96z" />
<glyph unicode="-" horiz-adv-x="811" d="M66 332l139 237h432q14 0 25.5 5t25.5 18l43 35l14 -9l-135 -237h-434q-13 0 -23.5 -4.5t-25.5 -18.5l-45 -34z" />
<glyph unicode="." horiz-adv-x="631" d="M182 92q0 55 39.5 94t93.5 39t94 -39.5t40 -93.5q0 -55 -39.5 -95t-94.5 -40t-94 40t-39 95z" />
<glyph unicode="/" horiz-adv-x="569" d="M-90 -190l487 1517q3 10 4.5 18t1.5 13q0 7 -5 15.5t-13 15.5l-25 18v14h242l-485 -1515q-2 -6 -3 -12.5t-1 -16.5q0 -11 4.5 -20.5t11.5 -14.5l25 -18v-14h-244z" />
<glyph unicode="0" horiz-adv-x="1262" d="M94 496v430q0 236 146.5 378t390.5 142q243 0 388.5 -142t145.5 -378v-430q0 -237 -145.5 -379t-388.5 -142q-244 0 -390.5 142.5t-146.5 378.5zM303 498q0 -161 85.5 -248.5t242.5 -87.5t242 87.5t85 248.5v426q0 160 -85.5 249t-241.5 89q-157 0 -242.5 -88.5 t-85.5 -249.5v-426z" />
<glyph unicode="1" horiz-adv-x="664" d="M145 1122l295 348v-1394q0 -12 3.5 -21t11.5 -16l24 -25v-14h-276v14l24 25q8 7 11.5 16t3.5 21v989q0 34 -15.5 45.5t-62.5 11.5h-19z" />
<glyph unicode="2" horiz-adv-x="1079" d="M18 0l613 727q70 84 96.5 142t26.5 120q0 114 -79 192.5t-194 78.5q-118 0 -187.5 -70t-78.5 -196l-137 231q71 108 174.5 164.5t228.5 56.5q71 0 136 -19t120 -57q97 -63 153 -163t56 -208q0 -96 -35 -182t-110 -174l-387 -448h497q13 0 23.5 4t21.5 14l39 33l11 -6 l-127 -240h-861z" />
<glyph unicode="3" horiz-adv-x="1100" d="M33 0l88 195h266q216 0 306.5 71.5t90.5 237.5q0 126 -72 210t-210 117q80 42 120 99t40 129q0 87 -56.5 142.5t-144.5 55.5q-92 0 -151.5 -55.5t-69.5 -152.5l-134 217q74 91 162 135.5t197 44.5q173 0 284 -101.5t111 -257.5q0 -68 -20.5 -122.5t-63.5 -98.5 q107 -49 162 -146t55 -235q0 -136 -65.5 -249.5t-184.5 -180.5q-50 -28 -130.5 -41.5t-206.5 -13.5h-373z" />
<glyph unicode="4" horiz-adv-x="1198" d="M57 440l633 981h221l-624 -966h434v372l188 236v-608h129q11 0 19.5 3.5t23.5 16.5l39 31l13 -6l-127 -230h-97v-194q0 -12 3.5 -21t11.5 -16l26 -25v-14h-268v14l25 25q7 7 10.5 16t3.5 21v194h-543z" />
<glyph unicode="5" horiz-adv-x="1063" d="M12 0l88 195h271q192 0 285.5 78.5t93.5 240.5q0 148 -84 224.5t-246 76.5h-279l56 533v4q0 8 -4 15.5t-11 14.5l-24 25v14h716l-126 -243h-13l2 18v4q0 13 -9.5 21t-25.5 8h-321l-23 -219h93q233 0 368 -132t135 -360q0 -240 -151 -379t-414 -139h-377z" />
<glyph unicode="6" horiz-adv-x="1196" d="M98 465q0 82 29 168t84 170l350 534q3 3 4.5 8.5t1.5 12.5q0 9 -5.5 18t-16.5 19l-17 12v14h322l-447 -682q-49 -75 -72.5 -141.5t-23.5 -130.5q0 -136 84.5 -218.5t222.5 -82.5q128 0 208.5 86t80.5 223t-82 216t-225 79h-29q-10 -1 -18 -2l127 182q205 -29 319.5 -152 t114.5 -315q0 -223 -142 -365.5t-366 -142.5q-214 0 -359 140.5t-145 349.5z" />
<glyph unicode="7" horiz-adv-x="1016" d="M61 1184l127 237h793l-514 -1321q-5 -15 -6.5 -22t-1.5 -12q0 -13 5 -22.5t16 -17.5l16 -12v-14h-283l492 1227h-549q-12 0 -21.5 -4t-21.5 -15l-39 -32z" />
<glyph unicode="8" horiz-adv-x="1188" d="M94 467q0 124 54 225.5t159 173.5q-40 42 -60 93.5t-20 115.5q0 158 106 264.5t261 106.5t259.5 -106.5t104.5 -264.5q0 -65 -19 -116.5t-58 -92.5q113 -91 162 -183.5t49 -215.5q0 -99 -37.5 -188t-108.5 -158q-72 -71 -162.5 -108.5t-189.5 -37.5t-191 38t-163 107.5 t-108.5 158.5t-37.5 188zM295 467q0 -132 85.5 -219.5t213.5 -87.5q127 0 212 87.5t85 219.5q0 119 -71.5 201.5t-188.5 99.5v147q63 14 99 59.5t36 112.5q0 77 -49 127t-123 50t-123 -50t-49 -127q0 -67 36 -112.5t99 -59.5v-147q-117 -14 -189.5 -97.5t-72.5 -203.5z" />
<glyph unicode="9" horiz-adv-x="1196" d="M90 938q0 223 143 365.5t367 142.5q214 0 358 -139.5t144 -348.5q0 -82 -29 -168t-84 -169l-340 -521q-8 -14 -11 -22t-3 -15q0 -9 5 -17.5t17 -18.5l15 -13v-14h-322l449 682q50 76 72 143t22 142q0 127 -86 208.5t-221 81.5q-127 0 -208 -87t-81 -224 q0 -136 82.5 -214.5t224.5 -78.5q20 0 30 1q10 0 19 1l-129 -182q-206 29 -320 151.5t-114 313.5z" />
<glyph unicode=":" horiz-adv-x="631" d="M182 92q0 55 39.5 94t93.5 39t94 -39.5t40 -93.5q0 -55 -39.5 -95t-94.5 -40t-94 40t-39 95zM182 682q0 54 39.5 93.5t93.5 39.5t94 -39.5t40 -93.5q0 -55 -39.5 -95t-94.5 -40t-94 39.5t-39 95.5z" />
<glyph unicode=";" horiz-adv-x="631" d="M127 -154l65 274q3 12 5 24t2 22q0 9 -5 17t-16 14v14h268l-223 -365h-96zM182 682q0 54 39.5 93.5t93.5 39.5t94 -39.5t40 -93.5q0 -55 -39.5 -95t-94.5 -40t-94 39.5t-39 95.5z" />
<glyph unicode="&#x3c;" horiz-adv-x="1444" d="M23 33q0 86 29.5 160t88.5 137q-8 25 -12 52.5t-4 59.5q0 179 103.5 308.5t287.5 179.5q48 173 78 353t43 368q13 -192 42.5 -371.5t76.5 -349.5q178 -46 285.5 -176t107.5 -299q0 -29 -4.5 -59.5t-13.5 -61.5q67 -35 134.5 -53.5t125.5 -18.5q6 0 15 1t21 3 q-43 -75 -132.5 -119.5t-198.5 -44.5q-20 0 -44 2.5t-55 7.5q-75 -71 -166 -108t-194 -37t-195 35t-166 102q-75 -39 -128 -92.5t-82 -120.5q-21 24 -32 60.5t-11 81.5zM33 35q0 -36 7 -68t21 -57q73 131 209.5 201.5t324.5 74.5l-218 367q-41 -69 -153 -164 q-24 -20 -36 -31q-82 -73 -118.5 -149t-36.5 -174zM47 31q0 98 35 172.5t114 144.5l33 27q99 80 148 153l196 -329q-180 -10 -310.5 -76.5t-198.5 -183.5q-9 27 -13 49.5t-4 42.5zM150 442q0 -18 3 -41t9 -53l6 7q-5 21 -7.5 45t-2.5 55q0 154 94.5 273.5t253.5 166.5l2 6 q-168 -49 -263 -171t-95 -288zM164 453q0 -29 2.5 -51.5t8.5 -42.5q68 50 118.5 101t83.5 105l233 -387h-28q-70 0 -137 -14t-128 -41q67 -59 147 -89t171 -30t170.5 29.5t144.5 87.5q-66 21 -137.5 34t-150.5 19l233 391q39 -65 89.5 -118.5t111.5 -92.5q6 24 9 50t3 51 q0 152 -92.5 271t-247.5 163q19 -65 41.5 -128.5t48.5 -123.5l-221 -369l-223 369q29 67 52 130t40 122q-157 -47 -249.5 -165.5t-92.5 -270.5zM326 96q68 -52 146.5 -79t164.5 -27q85 0 162 26.5t147 79.5l-6 6q-67 -51 -141 -77.5t-152 -26.5q-92 0 -170 26t-145 78z M422 637l215 -356l213 356q-79 177 -132.5 407t-80.5 508q-27 -274 -81 -505t-134 -410zM438 637q77 180 127.5 392t71.5 444q21 -235 71 -447t126 -389l-197 -330zM674 180q87 -4 226 -36.5t198 -32.5q100 0 183.5 38.5t129.5 106.5h-6q-159 0 -290.5 76t-219.5 219z M696 193l199 331q81 -128 203.5 -199t283.5 -83q-45 -55 -122 -87t-162 -32q-63 0 -195 32t-207 38zM793 889q150 -54 236.5 -170.5t86.5 -263.5q0 -27 -3.5 -53t-10.5 -52l6 -4q7 24 10.5 51t3.5 58q0 151 -86.5 266.5t-242.5 173.5v-6z" />
<glyph unicode="=" horiz-adv-x="1421" d="M113 322v165h1198v-165h-1198zM113 733v168h1198v-168h-1198z" />
<glyph unicode="&#x3e;" d="M43 -129q45 537 170.5 938t335.5 682q214 -352 339 -726t161 -765q-117 250 -200.5 372t-137.5 122q-80 0 -283 -179.5t-385 -443.5zM106 84q180 212 357 347.5t256 135.5q42 0 92.5 -51t122.5 -168q-52 259 -150 518.5t-247 532.5q-165 -235 -272 -562.5t-159 -752.5z M375 799l123 37l51 450l57 -452l123 -41l-113 -50l19 -127l-84 119l-80 -131l18 139z" />
<glyph unicode="?" horiz-adv-x="930" d="M111 1143l118 235h148q194 0 307 -120.5t113 -329.5q0 -172 -94 -278t-271 -132v-160h-182v340h141q98 0 154.5 62.5t56.5 171.5q0 125 -60.5 190.5t-176.5 65.5h-158q-13 0 -23 -4.5t-24 -16.5l-39 -30zM205 111q0 54 40 93.5t95 39.5q54 0 93.5 -40t39.5 -93 q0 -55 -39.5 -95.5t-93.5 -40.5q-55 0 -95 40t-40 96z" />
<glyph unicode="A" horiz-adv-x="1694" d="M-47 0l897 1470l891 -1470h-307v14q20 0 31.5 8t11.5 21q0 9 -2.5 16.5t-5.5 11.5l-302 496h-436q-31 0 -41 -1.5t-14 -6.5l-29 -24l-10 8l127 219h283l-197 325l-629 -1015q-4 -6 -6 -13.5t-2 -15.5q0 -13 11.5 -21t31.5 -8v-14h-303z" />
<glyph unicode="B" horiz-adv-x="1427" d="M152 0v14l24 25q7 7 10.5 16t3.5 21v1272q0 11 -3 18.5t-11 15.5l-24 25v14h722q186 0 290 -73t147 -232l-320 -233q180 -20 271.5 -131t91.5 -310q0 -214 -117.5 -328t-339.5 -114h-745zM399 195h498q120 0 180 59t60 178q0 137 -75 203.5t-228 66.5q-53 0 -105 -3 t-102 -9l397 311q29 25 41 45.5t12 45.5q0 63 -53 100t-145 37h-480v-1034z" />
<glyph unicode="C" horiz-adv-x="1587" d="M76 692q0 131 35.5 246t105.5 211q49 67 112 120t138 91q66 33 142 47t225 14h706l-133 -243h-10l2 18v4q0 13 -10 21t-25 8h-530q-127 0 -211 -23t-142 -71q-92 -78 -139 -185.5t-47 -238.5q0 -139 46 -244.5t138 -177.5q65 -51 144.5 -72.5t218.5 -21.5h616q13 0 23 4 t22 14l39 33h17l-134 -246h-583q-202 0 -313.5 34.5t-209.5 115.5q-120 98 -181.5 235.5t-61.5 306.5z" />
<glyph unicode="D" horiz-adv-x="1671" d="M150 0v14l26 25q7 7 10.5 16t3.5 21v1272q0 11 -3 18.5t-11 15.5l-26 25v14h688q168 0 287.5 -34.5t209.5 -108.5q127 -105 193.5 -256t66.5 -332q0 -168 -61.5 -305t-181.5 -235q-100 -81 -212 -115.5t-309 -34.5h-681zM397 195h434q139 0 217.5 21.5t143.5 72.5 q93 72 139.5 178t46.5 244q0 126 -46.5 235.5t-131.5 183.5q-58 51 -145.5 75t-216.5 24h-441v-1034z" />
<glyph unicode="E" horiz-adv-x="1587" d="M76 692q0 131 35.5 246t105.5 211q49 67 112 120t138 91q66 33 142 47t225 14h706l-133 -243h-10l2 18v4q0 13 -10 21t-25 8h-530q-127 0 -211 -23t-142 -71q-92 -78 -139 -185.5t-47 -238.5q0 -139 46 -244.5t138 -177.5q65 -51 144.5 -72.5t218.5 -21.5h616q13 0 23 4 t22 14l39 33h17l-134 -246h-583q-202 0 -313.5 34.5t-209.5 115.5q-120 98 -181.5 235.5t-61.5 306.5zM346 682l86 195h979l-131 -246h-12l2 20v4q0 12 -9.5 19.5t-25.5 7.5h-889z" />
<glyph unicode="F" horiz-adv-x="1225" d="M152 0v14l24 25q7 7 10.5 16t3.5 21v1272q0 11 -3 18.5t-11 15.5l-24 25v14h1116l-133 -237h-11v14q0 16 -8 23.5t-24 7.5h-693v-545l105 193h483l-133 -246h-10v24q0 13 -9 20t-24 7h-412v-606q0 -12 3.5 -21t11.5 -16l24 -25v-14h-286z" />
<glyph unicode="G" horiz-adv-x="1556" d="M76 692q0 131 35.5 246t105.5 211q49 67 112 120t138 91q66 33 142 47t225 14h534l-133 -243h-12l2 18v4q0 13 -10 21t-25 8h-356q-127 0 -211 -23t-142 -71q-92 -78 -139 -185.5t-47 -238.5q0 -139 46 -244.5t138 -177.5q65 -51 144.5 -72.5t218.5 -21.5h336v495h-449 q-13 0 -23 -4t-22 -14l-39 -33l-12 8l129 238h624v-809q0 -12 4 -21t11 -16l24 -25v-14h-583q-202 0 -313.5 34.5t-209.5 115.5q-120 98 -181.5 235.5t-61.5 306.5z" />
<glyph unicode="H" horiz-adv-x="1583" d="M150 0v14l26 25q7 7 10.5 16t3.5 21v1272q0 11 -3 18.5t-11 15.5l-26 25v14h288v-14l-26 -25q-8 -7 -11.5 -15.5t-3.5 -18.5v-1272q0 -12 3.5 -21t11.5 -16l26 -25v-14h-288zM420 649l127 240h639v459q0 10 -3.5 18.5t-11.5 15.5l-26 25v14h289v-14l-27 -25 q-7 -6 -9.5 -14t-2.5 -20v-1272q0 -14 3 -22.5t9 -14.5l27 -25v-14h-289v14l26 25q8 7 11.5 16t3.5 21v618h-672q-12 0 -21 -3.5t-22 -14.5l-39 -33z" />
<glyph unicode="I" horiz-adv-x="606" d="M160 0v14l24 25q8 7 11.5 16t3.5 21v1272q0 10 -3.5 18.5t-11.5 15.5l-24 25v14h286v-14l-24 -25q-8 -8 -11 -15.5t-3 -18.5v-1272q0 -12 3.5 -21t10.5 -16l24 -25v-14h-286z" />
<glyph unicode="J" horiz-adv-x="1014" d="M-47 279l186 131l21 -19q-7 -12 -10 -23t-3 -22q0 -72 68.5 -126t165.5 -54q110 0 172.5 62t62.5 171q0 4 -1 14t-1 15v920q0 11 -3 18.5t-11 15.5l-25 25v14h287v-14l-24 -25q-8 -7 -11.5 -15.5t-3.5 -18.5v-920q0 -208 -118.5 -330.5t-317.5 -122.5q-161 0 -276.5 81 t-157.5 223z" />
<glyph unicode="K" horiz-adv-x="1415" d="M152 0v14l24 25q7 7 10.5 16t3.5 21v1272q0 11 -3 18.5t-11 15.5l-24 25v14h286v-14l-24 -25q-8 -7 -11.5 -15.5t-3.5 -18.5v-1272q0 -12 3.5 -21t11.5 -16l24 -25v-14h-286zM498 690v197l407 463q9 11 12 16.5t3 11.5q0 9 -6 15.5t-19 13.5v14h336l-508 -553 q294 -23 469.5 -236t175.5 -548v-84h-248v14l25 25q7 7 10.5 16t3.5 21v45q0 261 -158 419t-421 158q-21 0 -41.5 -2t-40.5 -6z" />
<glyph unicode="L" horiz-adv-x="1034" d="M152 0v14l24 25q7 7 10.5 16t3.5 21v1272q0 11 -3 18.5t-11 15.5l-24 25v14h286v-14l-24 -25q-8 -7 -11.5 -15.5t-3.5 -18.5v-1153h519q11 0 20.5 3.5t22.5 14.5l38 33l13 -8l-129 -238h-731z" />
<glyph unicode="M" horiz-adv-x="1868" d="M29 0l397 1470l518 -1093l504 1093l391 -1470h-260v14l25 25q5 5 8.5 14t3.5 19q0 5 -2 15t-6 23l-217 836l-457 -993l-477 983l-199 -825q-3 -11 -4.5 -20t-1.5 -17q0 -11 3 -20t9 -15l23 -25v-14h-258z" />
<glyph unicode="N" horiz-adv-x="1526" d="M135 0v14l27 25q7 7 10.5 16t3.5 21v1394l998 -1036v914q-1 11 -4 18.5t-11 15.5l-26 25v14h268v-14l-25 -25q-7 -7 -10.5 -15.5t-3.5 -18.5v-1395l-997 1018v-895q0 -12 3.5 -21t10.5 -16l24 -25v-14h-268z" />
<glyph unicode="O" horiz-adv-x="1745" d="M76 711q0 165 66 307t194 252q99 85 237.5 130.5t298.5 45.5q161 0 299.5 -45.5t237.5 -130.5q129 -110 194.5 -251.5t65.5 -307.5q0 -165 -66 -306.5t-194 -250.5q-100 -87 -238.5 -133t-298.5 -46q-159 0 -297.5 46t-238.5 133q-129 108 -194.5 249t-65.5 308zM295 711 q0 -240 161 -392.5t416 -152.5t416.5 152.5t161.5 392.5q0 239 -161.5 391.5t-416.5 152.5t-416 -152.5t-161 -391.5z" />
<glyph unicode="P" horiz-adv-x="1427" d="M152 0v14l24 25q7 7 10.5 16t3.5 21v1272q0 11 -3 18.5t-11 15.5l-24 25v14h788q181 0 297.5 -116t116.5 -295q0 -176 -107 -284t-282 -108h-316l-112 195h415q86 0 135.5 53.5t49.5 147.5q0 101 -63.5 158t-176.5 57h-498v-1153q0 -12 3.5 -21t11.5 -16l24 -25v-14h-286 z" />
<glyph unicode="Q" horiz-adv-x="1745" d="M76 711q0 167 66 309t194 250q99 85 237.5 130.5t298.5 45.5q161 0 299.5 -45.5t237.5 -130.5q128 -110 194 -252t66 -307q0 -154 -49.5 -279t-149.5 -221l181 -236h-252l-86 109q-96 -54 -206.5 -81.5t-234.5 -27.5q-158 0 -296 46t-240 133q-129 108 -194.5 249 t-65.5 308zM295 711q0 -240 161 -392.5t416 -152.5q88 0 167 19.5t151 58.5l-248 317h254l145 -184q54 62 81.5 147t27.5 187q0 239 -161.5 391.5t-416.5 152.5t-416 -152.5t-161 -391.5z" />
<glyph unicode="R" horiz-adv-x="1575" d="M152 0v14l24 25q7 7 10.5 16t3.5 21v1272q0 11 -3 18.5t-11 15.5l-24 25v14h796q144 0 245.5 -83t127.5 -222l-358 -264q259 -40 411 -247t152 -521v-84h-248v14l27 25q7 7 10.5 16t3.5 21v45q0 251 -154.5 415t-390.5 164q-30 0 -64 -2.5t-73 -7.5l379 297 q42 34 58 58.5t16 54.5q0 60 -51 94.5t-142 34.5h-498v-1153q0 -12 3.5 -21t11.5 -16l24 -25v-14h-286z" />
<glyph unicode="S" horiz-adv-x="1622" d="M35 0l86 195h1210q1 7 1.5 16t0.5 27q0 147 -89.5 242.5t-272.5 144.5l-588 149q-155 40 -231 122.5t-76 211.5q0 147 102 230t285 83h971l-134 -243h-12l2 18v4q0 13 -9.5 21t-25.5 8h-792q-88 0 -130 -28.5t-42 -88.5q0 -108 281 -179l12 -3l438 -113q256 -66 390 -212 t134 -359v-246h-1511z" />
<glyph unicode="T" horiz-adv-x="1569" d="M4 1184l127 237h1428l-134 -243h-10v22q0 13 -9 21t-24 8h-505v-1153q0 -14 2.5 -22t9.5 -15l26 -25v-14h-288v14l26 25q8 7 11.5 16t3.5 21v1153h-570q-10 0 -19 -4t-24 -17l-39 -30z" />
<glyph unicode="U" horiz-adv-x="1573" d="M152 1407v14h286v-14l-24 -25q-8 -7 -11.5 -15.5t-3.5 -18.5v-967q0 -120 83 -167.5t302 -47.5q223 0 306.5 47t83.5 168v967q-1 11 -4 18.5t-11 15.5l-24 25v14h286v-14l-24 -25q-8 -7 -11 -15t-4 -19v-1031q0 -170 -149 -256t-447 -86q-297 0 -446.5 86t-149.5 256 v1031q0 11 -3 18.5t-11 15.5z" />
<glyph unicode="V" horiz-adv-x="1421" d="M-47 1421h307v-14l-18 -18q-6 -6 -9.5 -13t-3.5 -12q0 -9 6 -27t17 -39l461 -909l471 910q11 22 16.5 38t5.5 25q0 7 -2.5 13t-7.5 11l-20 21v14h294l-759 -1468z" />
<glyph unicode="W" horiz-adv-x="2062" d="M-43 1421h283v-14l-23 -23q-6 -6 -9 -15t-3 -21q0 -10 1.5 -19t4.5 -18l352 -877l473 1012l475 -995l338 859q3 9 4.5 18.5t1.5 19.5q0 12 -3 21t-9 15l-22 23v14h278l-577 -1468l-490 1065l-485 -1065z" />
<glyph unicode="X" horiz-adv-x="1346" d="M-33 0l578 764l-516 657h348v-14l-19 -18q-8 -8 -11 -15t-3 -14q0 -13 7 -30t20 -32l299 -385l276 385q16 22 21.5 34.5t5.5 25.5q0 8 -4 17t-8 14l-19 18v14h336l-498 -657l598 -764h-348v14l19 19q5 5 8.5 14t3.5 16q0 13 -6 26.5t-21 33.5l-377 498l-358 -498 q-15 -23 -21 -36t-6 -24q0 -9 3.5 -16.5t9.5 -13.5l20 -19v-14h-338z" />
<glyph unicode="Y" horiz-adv-x="1307" d="M-47 1421h330v-14l-21 -18q-4 -5 -7 -11.5t-3 -11.5q0 -16 33 -58q5 -6 8 -10l375 -489l354 489q2 3 8 11q31 39 31 57q0 5 -3 11.5t-7 11.5l-19 18v14h324l-576 -782v-563q0 -12 3.5 -21t11.5 -16l24 -25v-14h-287v14l25 25q7 7 10.5 16t3.5 21v545z" />
<glyph unicode="Z" horiz-adv-x="1442" d="M47 0l885 1227h-739q-13 0 -23.5 -4.5t-22.5 -14.5l-38 -32l-11 8l127 237h1098l-887 -1226h887q13 0 23 4t22 14l39 33l10 -8l-127 -238h-1243z" />
<glyph unicode="[" horiz-adv-x="717" d="M215 0v1421h475l-133 -217h-10v25q0 12 -9 19t-24 7h-121v-1089h121q15 0 24 8t9 21v4v18h10l133 -217h-475z" />
<glyph unicode="\" horiz-adv-x="569" d="M-33 1421h242v-14l-27 -18q-7 -6 -11.5 -14.5t-4.5 -16.5q0 -5 1.5 -12.5t4.5 -18.5l487 -1517h-245v14l26 18q7 5 12 15.5t5 19.5q0 10 -1 16t-3 13z" />
<glyph unicode="]" horiz-adv-x="717" d="M25 0l133 217h12l-2 -18v-4q0 -13 10 -21t25 -8h121v1089h-121q-16 0 -25.5 -7t-9.5 -19v-4l2 -21h-12l-133 217h477v-1421h-477z" />
<glyph unicode="`" d="M43 -129q45 537 170.5 938t335.5 682q214 -352 339 -726t161 -765q-117 250 -200.5 372t-137.5 122q-80 0 -283 -179.5t-385 -443.5zM106 84q180 212 357 347.5t256 135.5q42 0 92.5 -51t122.5 -168q-52 259 -150 518.5t-247 532.5q-165 -235 -272 -562.5t-159 -752.5z M375 799l123 37l51 450l57 -452l123 -41l-113 -50l19 -127l-84 119l-80 -131l18 139z" />
<glyph unicode="a" horiz-adv-x="963" d="M63 307q0 144 88 226.5t242 82.5h148l-101 -194h-12v4q0 14 -11.5 21.5t-33.5 7.5q-71 0 -113.5 -40t-42.5 -106q0 -75 43.5 -112t132.5 -37h234v489q0 63 -24 86t-91 23h-299q-12 0 -22.5 -4.5t-22.5 -14.5l-39 -32l-10 8l119 209h282q151 0 215 -69t64 -234v-545 q0 -12 3.5 -21t10.5 -16l25 -25v-14h-449q-164 0 -250 78.5t-86 228.5z" />
<glyph unicode="b" horiz-adv-x="1126" d="M119 0v14l26 25q4 3 9.5 17t5.5 20v1210q0 11 -3.5 19t-11.5 16l-26 25v14h254v-14l-25 -25q-7 -7 -10.5 -15.5t-3.5 -19.5v-1120h209q165 0 249.5 77.5t84.5 229.5q0 135 -80 210t-226 75h-51q-24 0 -46 -8t-38 -23l-22 -20l-11 8l119 209h66q214 0 342.5 -123.5 t128.5 -327.5q0 -220 -138.5 -346.5t-381.5 -126.5h-420z" />
<glyph unicode="c" horiz-adv-x="928" d="M66 453q0 216 136 343.5t369 127.5h269l-101 -213l-12 2v14q0 13 -7.5 22t-19.5 9h-129q-159 0 -242 -75.5t-83 -221.5q0 -143 79.5 -219t229.5 -76h193q14 0 27 4.5t25 13.5l40 33l12 -6l-119 -211h-196q-221 0 -346 120t-125 333z" />
<glyph unicode="d" horiz-adv-x="1126" d="M66 453q0 218 139.5 344.5t382.5 126.5h205v362q-1 12 -4 19.5t-11 15.5l-26 25v14h254v-14l-25 -25q-7 -7 -10.5 -15t-3.5 -20v-1210q0 -12 3.5 -21t10.5 -16l25 -25v-14h-252v14l24 25q8 8 11.5 16.5t3.5 20.5v682h-209q-162 0 -249 -77t-87 -218q0 -142 79.5 -219.5 t225.5 -77.5h76q12 0 21 3.5t22 14.5l39 33l12 -6l-119 -211h-65q-208 0 -340.5 128t-132.5 325z" />
<glyph unicode="e" horiz-adv-x="1012" d="M66 453q0 229 141 350t409 121h328l-315 -602h-183l230 436h-129q-143 0 -221 -76t-78 -215q0 -148 82 -224.5t241 -76.5h263q18 0 29.5 4t23.5 14l39 33l12 -6l-121 -211h-252q-233 0 -366 121t-133 332z" />
<glyph unicode="f" horiz-adv-x="592" d="M14 758l76 166h70v139q0 141 82 218t231 77h145l-98 -213l-14 2v14q0 13 -7 22t-18 9h-41q-50 0 -77 -24.5t-27 -69.5v-174h229l-98 -213l-12 2v14q0 13 -8 22t-19 9h-92v-678q0 -13 4 -23t12 -18l25 -25v-14h-258v14l26 25q8 7 11.5 16t3.5 21v682h-146z" />
<glyph unicode="g" horiz-adv-x="1126" d="M66 453q0 218 139.5 344.5t382.5 126.5h418v-15l-25 -24q-8 -8 -12 -17t-4 -18v-883q0 -221 -101 -312t-344 -91h-315l102 166h291q112 0 153.5 52t41.5 208v768h-209q-163 0 -249.5 -76.5t-86.5 -220.5q0 -149 75.5 -222t229.5 -73h51q25 0 43 6t35 21l29 24l12 -6 l-119 -211h-65q-214 0 -343.5 124.5t-129.5 328.5z" />
<glyph unicode="h" horiz-adv-x="1096" d="M119 0v14l26 25q8 7 11.5 16t3.5 21v1208q0 10 -3.5 18.5t-11.5 16.5l-26 24v15h258v-15l-27 -24q-7 -7 -10.5 -15.5t-3.5 -19.5v-426l6 -2l66 68h135q194 0 295.5 -107.5t101.5 -312.5v-428q0 -12 3.5 -21t10.5 -16l27 -25v-14h-258v14l27 25q7 7 10.5 16t3.5 21v428 q0 125 -55.5 189.5t-163.5 64.5h-209v-682q0 -12 3.5 -21t10.5 -16l27 -25v-14h-258z" />
<glyph unicode="i" horiz-adv-x="496" d="M119 0v14l26 25q8 7 11.5 16t3.5 21v774q0 10 -3.5 18.5t-11.5 16.5l-26 24v15h258v-15l-27 -24q-7 -8 -10.5 -16t-3.5 -19v-774q0 -12 3.5 -21t10.5 -16l27 -25v-14h-258zM135 1149q0 46 32.5 78.5t80.5 32.5q46 0 79 -32.5t33 -78.5q0 -47 -33 -80t-79 -33 q-47 0 -80 33t-33 80z" />
<glyph unicode="j" horiz-adv-x="496" d="M-166 -436l86 166h76q87 0 127.5 63t40.5 201v856q0 10 -3.5 18.5t-10.5 16.5l-25 24v15h256v-15l-25 -24q-7 -8 -10.5 -16.5t-3.5 -18.5v-903q0 -191 -95.5 -287t-285.5 -96h-127zM139 1149q0 46 33 78.5t80 32.5q46 0 79.5 -32.5t33.5 -78.5q0 -47 -33 -80t-80 -33 t-80 33t-33 80z" />
<glyph unicode="k" horiz-adv-x="1176" d="M119 0v14l26 25q8 7 11.5 16t3.5 21v1208q0 10 -3.5 18.5t-11.5 16.5l-26 24v15h258v-15l-27 -24q-7 -7 -10.5 -15.5t-3.5 -19.5v-1208q0 -12 3.5 -21t10.5 -16l27 -25v-14h-258zM397 494v170l219 194q7 5 11 11.5t4 11.5q0 4 -3 9.5t-7 8.5l-17 10v15h342v-15l-297 -252 q191 -32 299.5 -165t108.5 -334v-158h-217v14l24 25q8 7 11.5 16t3.5 21v76q0 162 -88.5 252t-249.5 90h-144z" />
<glyph unicode="l" horiz-adv-x="496" d="M119 0v14l26 25q8 7 11.5 16t3.5 21v1208q0 10 -3.5 18.5t-11.5 16.5l-26 24v15h258v-15l-27 -24q-7 -7 -10.5 -15.5t-3.5 -19.5v-1208q0 -12 3.5 -21t10.5 -16l27 -25v-14h-258z" />
<glyph unicode="m" horiz-adv-x="1692" d="M119 0v14l26 25q8 7 11.5 16t3.5 21v774q0 10 -3.5 18.5t-11.5 16.5l-26 24v15h213v-66l4 -2l67 68h140q72 0 125 -16t96 -50l47 66h281q232 0 338 -100.5t106 -319.5v-428q0 -12 3.5 -21t10.5 -16l27 -25v-14h-258v14l27 25q7 7 10.5 16t3.5 21v428q0 135 -57.5 194.5 t-188.5 59.5h-233q31 -45 45 -104t14 -150v-428q0 -12 3.5 -21t10.5 -16l27 -25v-14h-258v14l27 25q7 7 10.5 16t3.5 21v428q0 130 -53.5 192t-165.5 62h-209v-682q0 -12 3.5 -21t10.5 -16l27 -25v-14h-258z" />
<glyph unicode="n" horiz-adv-x="1096" d="M119 0v14l26 25q8 7 11.5 16t3.5 21v774q0 10 -3.5 18.5t-11.5 16.5l-26 24v15h213v-66l4 -2l67 68h139q197 -2 297.5 -108t100.5 -312v-428q0 -12 3.5 -21t10.5 -16l27 -25v-14h-258v14l27 25q7 7 10.5 16t3.5 21v428q0 124 -55 189t-160 65h-4h-209v-682q0 -12 3.5 -21 t10.5 -16l27 -25v-14h-258z" />
<glyph unicode="o" horiz-adv-x="1157" d="M66 461q0 213 143 349t369 136q225 0 368.5 -136t143.5 -349q0 -214 -143.5 -350t-368.5 -136q-227 0 -369.5 135.5t-142.5 350.5zM250 461q0 -146 89 -233t239 -87q149 0 239 87.5t90 232.5t-90 232t-239 87q-150 0 -239 -87t-89 -232z" />
<glyph unicode="p" horiz-adv-x="1126" d="M119 -422l26 25q8 7 11.5 16t3.5 21v1210q0 10 -3.5 18.5t-11.5 16.5l-26 24v15h420q241 0 380.5 -126.5t139.5 -344.5q0 -197 -132 -325t-339 -128h-66l-119 211l11 6l30 -24q17 -15 36 -21t46 -6h45q143 0 224.5 77t81.5 210q0 150 -85 227.5t-249 77.5h-209v-1118 q0 -12 3.5 -21t10.5 -16l25 -25v-14h-254v14z" />
<glyph unicode="q" horiz-adv-x="1126" d="M66 453q0 218 139.5 344.5t382.5 126.5h418v-15l-25 -24q-7 -7 -10.5 -15.5t-3.5 -19.5v-1210q0 -12 3.5 -21t10.5 -16l25 -25v-14h-254v14l26 25q7 7 11 16t4 21v1118h-209q-162 0 -249 -77t-87 -218q0 -142 79.5 -219.5t225.5 -77.5h76q12 0 21 3.5t22 14.5l39 33 l12 -6l-119 -211h-65q-208 0 -340.5 128t-132.5 325z" />
<glyph unicode="r" horiz-adv-x="743" d="M119 0v14l26 25q8 7 11.5 16t3.5 21v774q0 10 -3.5 18.5t-11.5 16.5l-26 24v15h383q57 0 109 -27t87 -74l-82 -170l-14 2v15q0 34 -34.5 57t-88.5 23h-143v-674q0 -12 3.5 -21t10.5 -16l27 -25v-14h-258z" />
<glyph unicode="s" horiz-adv-x="1061" d="M-6 0l76 166h696q0 6 1 18.5t1 18.5q0 92 -46 139t-185 84q-45 12 -163.5 40t-170.5 50q-57 24 -91 75t-34 109q0 99 84.5 161.5t222.5 62.5h549l-103 -213l-12 2v14q0 14 -6.5 22t-17.5 9h-420q-60 0 -86.5 -11t-26.5 -36q0 -51 184 -95q121 -29 197 -53 q166 -51 246 -147t80 -244v-172h-975z" />
<glyph unicode="t" horiz-adv-x="555" d="M25 758v14q80 77 156.5 168t150.5 201h14v-217h182l-96 -213l-14 2v14q0 13 -8 22t-19 9h-45v-682q0 -12 3.5 -21t10.5 -16l25 -25v-14h-256v14l25 25q7 7 10.5 16t3.5 21v682h-143z" />
<glyph unicode="u" horiz-adv-x="1096" d="M119 909v15h258v-15l-27 -24q-7 -8 -10.5 -16t-3.5 -19v-430q0 -137 50.5 -195.5t168.5 -58.5h209v684q0 10 -3.5 18.5t-10.5 16.5l-27 24v15h258v-15l-27 -24q-7 -8 -10.5 -16.5t-3.5 -18.5v-774q0 -12 3.5 -21t10.5 -16l27 -25v-14h-213v66l-4 4l-68 -70h-139 q-199 0 -298 104.5t-99 315.5v430q0 10 -3.5 18.5t-11.5 16.5z" />
<glyph unicode="v" horiz-adv-x="956" d="M6 909v15h262v-15l-24 -18q-9 -6 -14 -15t-5 -18q0 -5 0.5 -7.5t1.5 -4.5l246 -498l244 498q0 1 1 3q3 9 3 13q0 9 -4 16t-13 13l-26 18v15h258v-15l-467 -934z" />
<glyph unicode="w" horiz-adv-x="1497" d="M6 909v15h260v-15l-26 -18q-8 -6 -11.5 -12.5t-3.5 -14.5q0 -2 1 -6.5t4 -12.5l241 -532l281 611l286 -605l242 527q3 8 3.5 11.5t0.5 6.5q0 7 -4 13.5t-12 13.5l-27 18v15h256v-15l-463 -934l-286 598l-279 -598z" />
<glyph unicode="x" horiz-adv-x="1067" d="M-2 0l430 479l-387 445h313v-15q-14 -9 -21 -18.5t-7 -18.5q0 -8 3.5 -16t12.5 -18l195 -230l188 230q7 8 10.5 16.5t3.5 17.5q0 10 -6.5 19t-19.5 18v15h313l-387 -432l430 -492h-315v14q14 10 21 19t7 18q0 11 -3.5 20.5t-10.5 16.5l-240 274l-229 -274 q-7 -8 -10.5 -17t-3.5 -20q0 -9 7 -18t21 -19v-14h-315z" />
<glyph unicode="y" horiz-adv-x="879" d="M-23 909v15h256v-15l-26 -18q-9 -7 -13 -14t-4 -15q1 -6 2 -10t3 -7l251 -499l240 494q2 3 3 7t1 11q0 10 -5 18.5t-13 14.5l-25 18v15h256v-15l-618 -1248q-5 -9 -8 -20t-3 -22q1 -12 4 -19t10 -11q11 -6 16.5 -8t10.5 -3v-14h-260l295 596z" />
<glyph unicode="z" horiz-adv-x="993" d="M35 0l522 760h-379q-13 0 -23 -4t-22 -15l-39 -32l-10 6l115 209h665l-522 -758h563q12 0 21.5 3.5t21.5 14.5l39 33l12 -6l-120 -211h-844z" />
<glyph unicode="{" d="M43 -129q42 525 167.5 927.5t338.5 692.5q215 -352 339.5 -724t160.5 -767q-108 237 -196 365.5t-142 128.5q-80 0 -282 -179.5t-386 -443.5zM106 84q180 212 356 347.5t255 135.5q40 0 87 -46t130 -173q-60 284 -159.5 545t-239.5 506q-167 -242 -274 -569.5 t-155 -745.5zM315 823q0 95 63 158t157 63q91 0 154 -63.5t63 -157.5q0 -93 -62.5 -157t-154.5 -64q-94 0 -157 63.5t-63 157.5zM352 844q0 -16 7 -34.5t20 -39.5q18 94 74 139t153 45q14 0 56 -13q10 -3 16 -5q-27 36 -65 55t-85 19q-68 0 -122 -51.5t-54 -114.5zM406 756 q24 -17 49.5 -25t56.5 -8q67 0 117.5 47t68.5 127q-16 12 -41 18.5t-55 6.5q-77 0 -130.5 -45t-65.5 -121zM412 716q6 -35 40.5 -58t82.5 -23q80 0 132 53t52 135q0 4 -1 12.5t-1 12.5q-27 -72 -82 -113t-123 -41q-24 0 -49 6t-51 16z" />
<glyph unicode="}" d="M43 -127q45 534 170.5 935.5t335.5 682.5q212 -345 337.5 -720t162.5 -771q-115 248 -199 371t-139 123q-82 0 -281 -177.5t-387 -443.5zM106 86q184 213 358.5 347t254.5 134q43 0 96 -53.5t119 -165.5q-52 256 -150 514.5t-249 536.5q-163 -231 -269 -556t-160 -757z M354 973l197 114l149 -88l-10 -221l-139 -24l-59 108l12 4q23 -34 44.5 -49.5t45.5 -15.5q35 0 55.5 25.5t20.5 70.5q0 60 -32.5 96.5t-84.5 36.5q-66 0 -112 -41.5t-46 -101.5q0 -78 76.5 -142t233.5 -116v-19l-322 101z" />
<glyph unicode="~" d="M43 -129q45 537 170.5 938t335.5 682q214 -352 339 -726t161 -765q-117 250 -200.5 372t-137.5 122q-80 0 -283 -179.5t-385 -443.5zM106 84q180 212 357 347.5t256 135.5q42 0 92.5 -51t122.5 -168q-52 259 -150 518.5t-247 532.5q-165 -235 -272 -562.5t-159 -752.5z M375 799l123 37l51 450l57 -452l123 -41l-113 -50l19 -127l-84 119l-80 -131l18 139z" />
<glyph unicode="&#xaa;" horiz-adv-x="963" d="M63 307q0 144 88 226.5t242 82.5h148l-101 -194h-12v4q0 14 -11.5 21.5t-33.5 7.5q-71 0 -113.5 -40t-42.5 -106q0 -75 43.5 -112t132.5 -37h234v489q0 63 -24 86t-91 23h-299q-12 0 -22.5 -4.5t-22.5 -14.5l-39 -32l-10 8l119 209h282q151 0 215 -69t64 -234v-545 q0 -12 3.5 -21t10.5 -16l25 -25v-14h-449q-164 0 -250 78.5t-86 228.5z" />
<glyph unicode="&#xad;" horiz-adv-x="811" d="M66 332l139 237h432q14 0 25.5 5t25.5 18l43 35l14 -9l-135 -237h-434q-13 0 -23.5 -4.5t-25.5 -18.5l-45 -34z" />
<glyph unicode="&#xb2;" horiz-adv-x="1079" d="M18 0l613 727q70 84 96.5 142t26.5 120q0 114 -79 192.5t-194 78.5q-118 0 -187.5 -70t-78.5 -196l-137 231q71 108 174.5 164.5t228.5 56.5q71 0 136 -19t120 -57q97 -63 153 -163t56 -208q0 -96 -35 -182t-110 -174l-387 -448h497q13 0 23.5 4t21.5 14l39 33l11 -6 l-127 -240h-861z" />
<glyph unicode="&#xb3;" horiz-adv-x="1100" d="M33 0l88 195h266q216 0 306.5 71.5t90.5 237.5q0 126 -72 210t-210 117q80 42 120 99t40 129q0 87 -56.5 142.5t-144.5 55.5q-92 0 -151.5 -55.5t-69.5 -152.5l-134 217q74 91 162 135.5t197 44.5q173 0 284 -101.5t111 -257.5q0 -68 -20.5 -122.5t-63.5 -98.5 q107 -49 162 -146t55 -235q0 -136 -65.5 -249.5t-184.5 -180.5q-50 -28 -130.5 -41.5t-206.5 -13.5h-373z" />
<glyph unicode="&#xb9;" horiz-adv-x="664" d="M145 1122l295 348v-1394q0 -12 3.5 -21t11.5 -16l24 -25v-14h-276v14l24 25q8 7 11.5 16t3.5 21v989q0 34 -15.5 45.5t-62.5 11.5h-19z" />
<glyph unicode="&#xba;" horiz-adv-x="1157" d="M66 461q0 213 143 349t369 136q225 0 368.5 -136t143.5 -349q0 -214 -143.5 -350t-368.5 -136q-227 0 -369.5 135.5t-142.5 350.5zM250 461q0 -146 89 -233t239 -87q149 0 239 87.5t90 232.5t-90 232t-239 87q-150 0 -239 -87t-89 -232z" />
<glyph unicode="&#xc0;" horiz-adv-x="1694" d="M850 1592q45 537 170.5 938t335.5 682q214 -352 339 -726t161 -765q-117 250 -200.5 372t-137.5 122q-80 0 -283 -179.5t-385 -443.5zM913 1805q180 212 357 347.5t256 135.5q42 0 92.5 -51t122.5 -168q-52 259 -150 518.5t-247 532.5q-165 -235 -272 -562.5t-159 -752.5 zM1182 2520l123 37l51 450l57 -452l123 -41l-113 -50l19 -127l-84 119l-80 -131l18 139zM-47 0l897 1470l891 -1470h-307v14q20 0 31.5 8t11.5 21q0 9 -2.5 16.5t-5.5 11.5l-302 496h-436q-31 0 -41 -1.5t-14 -6.5l-29 -24l-10 8l127 219h283l-197 325l-629 -1015 q-4 -6 -6 -13.5t-2 -15.5q0 -13 11.5 -21t31.5 -8v-14h-303z" />
<glyph unicode="&#xc3;" horiz-adv-x="1694" d="M347 1592q45 537 170.5 938t335.5 682q214 -352 339 -726t161 -765q-117 250 -200.5 372t-137.5 122q-80 0 -283 -179.5t-385 -443.5zM410 1805q180 212 357 347.5t256 135.5q42 0 92.5 -51t122.5 -168q-52 259 -150 518.5t-247 532.5q-165 -235 -272 -562.5t-159 -752.5 zM679 2520l123 37l51 450l57 -452l123 -41l-113 -50l19 -127l-84 119l-80 -131l18 139zM-47 0l897 1470l891 -1470h-307v14q20 0 31.5 8t11.5 21q0 9 -2.5 16.5t-5.5 11.5l-302 496h-436q-31 0 -41 -1.5t-14 -6.5l-29 -24l-10 8l127 219h283l-197 325l-629 -1015 q-4 -6 -6 -13.5t-2 -15.5q0 -13 11.5 -21t31.5 -8v-14h-303z" />
<glyph unicode="&#xc8;" horiz-adv-x="1587" d="M1187 1568q45 537 170.5 938t335.5 682q214 -352 339 -726t161 -765q-117 250 -200.5 372t-137.5 122q-80 0 -283 -179.5t-385 -443.5zM1250 1781q180 212 357 347.5t256 135.5q42 0 92.5 -51t122.5 -168q-52 259 -150 518.5t-247 532.5q-165 -235 -272 -562.5 t-159 -752.5zM1519 2496l123 37l51 450l57 -452l123 -41l-113 -50l19 -127l-84 119l-80 -131l18 139zM76 692q0 131 35.5 246t105.5 211q49 67 112 120t138 91q66 33 142 47t225 14h706l-133 -243h-10l2 18v4q0 13 -10 21t-25 8h-530q-127 0 -211 -23t-142 -71 q-92 -78 -139 -185.5t-47 -238.5q0 -139 46 -244.5t138 -177.5q65 -51 144.5 -72.5t218.5 -21.5h616q13 0 23 4t22 14l39 33h17l-134 -246h-583q-202 0 -313.5 34.5t-209.5 115.5q-120 98 -181.5 235.5t-61.5 306.5zM346 682l86 195h979l-131 -246h-12l2 20v4 q0 12 -9.5 19.5t-25.5 7.5h-889z" />
<glyph unicode="&#xcc;" horiz-adv-x="606" d="M303 1568q45 537 170.5 938t335.5 682q214 -352 339 -726t161 -765q-117 250 -200.5 372t-137.5 122q-80 0 -283 -179.5t-385 -443.5zM366 1781q180 212 357 347.5t256 135.5q42 0 92.5 -51t122.5 -168q-52 259 -150 518.5t-247 532.5q-165 -235 -272 -562.5t-159 -752.5 zM635 2496l123 37l51 450l57 -452l123 -41l-113 -50l19 -127l-84 119l-80 -131l18 139zM160 0v14l24 25q8 7 11.5 16t3.5 21v1272q0 10 -3.5 18.5t-11.5 15.5l-24 25v14h286v-14l-24 -25q-8 -8 -11 -15.5t-3 -18.5v-1272q0 -12 3.5 -21t10.5 -16l24 -25v-14h-286z" />
<glyph unicode="&#xd1;" horiz-adv-x="1526" d="M-327 1592q45 537 170.5 938t335.5 682q214 -352 339 -726t161 -765q-117 250 -200.5 372t-137.5 122q-80 0 -283 -179.5t-385 -443.5zM-264 1805q180 212 357 347.5t256 135.5q42 0 92.5 -51t122.5 -168q-52 259 -150 518.5t-247 532.5q-165 -235 -272 -562.5 t-159 -752.5zM5 2520l123 37l51 450l57 -452l123 -41l-113 -50l19 -127l-84 119l-80 -131l18 139zM135 0v14l27 25q7 7 10.5 16t3.5 21v1394l998 -1036v914q-1 11 -4 18.5t-11 15.5l-26 25v14h268v-14l-25 -25q-7 -7 -10.5 -15.5t-3.5 -18.5v-1395l-997 1018v-895 q0 -12 3.5 -21t10.5 -16l24 -25v-14h-268z" />
<glyph unicode="&#xd2;" horiz-adv-x="1745" d="M872 1568q45 537 170.5 938t335.5 682q214 -352 339 -726t161 -765q-117 250 -200.5 372t-137.5 122q-80 0 -283 -179.5t-385 -443.5zM935 1781q180 212 357 347.5t256 135.5q42 0 92.5 -51t122.5 -168q-52 259 -150 518.5t-247 532.5q-165 -235 -272 -562.5t-159 -752.5 zM1204 2496l123 37l51 450l57 -452l123 -41l-113 -50l19 -127l-84 119l-80 -131l18 139zM76 711q0 165 66 307t194 252q99 85 237.5 130.5t298.5 45.5q161 0 299.5 -45.5t237.5 -130.5q129 -110 194.5 -251.5t65.5 -307.5q0 -165 -66 -306.5t-194 -250.5 q-100 -87 -238.5 -133t-298.5 -46q-159 0 -297.5 46t-238.5 133q-129 108 -194.5 249t-65.5 308zM295 711q0 -240 161 -392.5t416 -152.5t416.5 152.5t161.5 392.5q0 239 -161.5 391.5t-416.5 152.5t-416 -152.5t-161 -391.5z" />
<glyph unicode="&#xd5;" horiz-adv-x="1745" d="M369 1568q45 537 170.5 938t335.5 682q214 -352 339 -726t161 -765q-117 250 -200.5 372t-137.5 122q-80 0 -283 -179.5t-385 -443.5zM432 1781q180 212 357 347.5t256 135.5q42 0 92.5 -51t122.5 -168q-52 259 -150 518.5t-247 532.5q-165 -235 -272 -562.5t-159 -752.5 zM701 2496l123 37l51 450l57 -452l123 -41l-113 -50l19 -127l-84 119l-80 -131l18 139zM76 711q0 165 66 307t194 252q99 85 237.5 130.5t298.5 45.5q161 0 299.5 -45.5t237.5 -130.5q129 -110 194.5 -251.5t65.5 -307.5q0 -165 -66 -306.5t-194 -250.5 q-100 -87 -238.5 -133t-298.5 -46q-159 0 -297.5 46t-238.5 133q-129 108 -194.5 249t-65.5 308zM295 711q0 -240 161 -392.5t416 -152.5t416.5 152.5t161.5 392.5q0 239 -161.5 391.5t-416.5 152.5t-416 -152.5t-161 -391.5z" />
<glyph unicode="&#xd9;" horiz-adv-x="1573" d="M787 1568q45 537 170.5 938t335.5 682q214 -352 339 -726t161 -765q-117 250 -200.5 372t-137.5 122q-80 0 -283 -179.5t-385 -443.5zM850 1781q180 212 357 347.5t256 135.5q42 0 92.5 -51t122.5 -168q-52 259 -150 518.5t-247 532.5q-165 -235 -272 -562.5t-159 -752.5 zM1119 2496l123 37l51 450l57 -452l123 -41l-113 -50l19 -127l-84 119l-80 -131l18 139zM152 1407v14h286v-14l-24 -25q-8 -7 -11.5 -15.5t-3.5 -18.5v-967q0 -120 83 -167.5t302 -47.5q223 0 306.5 47t83.5 168v967q-1 11 -4 18.5t-11 15.5l-24 25v14h286v-14l-24 -25 q-8 -7 -11 -15t-4 -19v-1031q0 -170 -149 -256t-447 -86q-297 0 -446.5 86t-149.5 256v1031q0 11 -3 18.5t-11 15.5z" />
<glyph unicode="&#xe0;" horiz-adv-x="963" d="M389 1068q45 537 170.5 938t335.5 682q214 -352 339 -726t161 -765q-117 250 -200.5 372t-137.5 122q-80 0 -283 -179.5t-385 -443.5zM452 1281q180 212 357 347.5t256 135.5q42 0 92.5 -51t122.5 -168q-52 259 -150 518.5t-247 532.5q-165 -235 -272 -562.5t-159 -752.5 zM721 1996l123 37l51 450l57 -452l123 -41l-113 -50l19 -127l-84 119l-80 -131l18 139zM63 307q0 144 88 226.5t242 82.5h148l-101 -194h-12v4q0 14 -11.5 21.5t-33.5 7.5q-71 0 -113.5 -40t-42.5 -106q0 -75 43.5 -112t132.5 -37h234v489q0 63 -24 86t-91 23h-299 q-12 0 -22.5 -4.5t-22.5 -14.5l-39 -32l-10 8l119 209h282q151 0 215 -69t64 -234v-545q0 -12 3.5 -21t10.5 -16l25 -25v-14h-449q-164 0 -250 78.5t-86 228.5z" />
<glyph unicode="&#xe3;" horiz-adv-x="963" d="M-114 1068q45 537 170.5 938t335.5 682q214 -352 339 -726t161 -765q-117 250 -200.5 372t-137.5 122q-80 0 -283 -179.5t-385 -443.5zM-51 1281q180 212 357 347.5t256 135.5q42 0 92.5 -51t122.5 -168q-52 259 -150 518.5t-247 532.5q-165 -235 -272 -562.5 t-159 -752.5zM218 1996l123 37l51 450l57 -452l123 -41l-113 -50l19 -127l-84 119l-80 -131l18 139zM63 307q0 144 88 226.5t242 82.5h148l-101 -194h-12v4q0 14 -11.5 21.5t-33.5 7.5q-71 0 -113.5 -40t-42.5 -106q0 -75 43.5 -112t132.5 -37h234v489q0 63 -24 86t-91 23 h-299q-12 0 -22.5 -4.5t-22.5 -14.5l-39 -32l-10 8l119 209h282q151 0 215 -69t64 -234v-545q0 -12 3.5 -21t10.5 -16l25 -25v-14h-449q-164 0 -250 78.5t-86 228.5z" />
<glyph unicode="&#xe8;" horiz-adv-x="1012" d="M780 1068q45 537 170.5 938t335.5 682q214 -352 339 -726t161 -765q-117 250 -200.5 372t-137.5 122q-80 0 -283 -179.5t-385 -443.5zM843 1281q180 212 357 347.5t256 135.5q42 0 92.5 -51t122.5 -168q-52 259 -150 518.5t-247 532.5q-165 -235 -272 -562.5t-159 -752.5 zM1112 1996l123 37l51 450l57 -452l123 -41l-113 -50l19 -127l-84 119l-80 -131l18 139zM66 453q0 229 141 350t409 121h328l-315 -602h-183l230 436h-129q-143 0 -221 -76t-78 -215q0 -148 82 -224.5t241 -76.5h263q18 0 29.5 4t23.5 14l39 33l12 -6l-121 -211h-252 q-233 0 -366 121t-133 332z" />
<glyph unicode="&#xec;" horiz-adv-x="496" d="M248 1382q45 537 170.5 938t335.5 682q214 -352 339 -726t161 -765q-117 250 -200.5 372t-137.5 122q-80 0 -283 -179.5t-385 -443.5zM311 1595q180 212 357 347.5t256 135.5q42 0 92.5 -51t122.5 -168q-52 259 -150 518.5t-247 532.5q-165 -235 -272 -562.5t-159 -752.5 zM580 2310l123 37l51 450l57 -452l123 -41l-113 -50l19 -127l-84 119l-80 -131l18 139zM119 0v14l26 25q8 7 11.5 16t3.5 21v774q0 10 -3.5 18.5t-11.5 16.5l-26 24v15h258v-15l-27 -24q-7 -8 -10.5 -16t-3.5 -19v-774q0 -12 3.5 -21t10.5 -16l27 -25v-14h-258zM135 1149 q0 46 32.5 78.5t80.5 32.5q46 0 79 -32.5t33 -78.5q0 -47 -33 -80t-79 -33q-47 0 -80 33t-33 80z" />
<glyph unicode="&#xf1;" horiz-adv-x="1096" d="M47 1068q45 537 170.5 938t335.5 682q214 -352 339 -726t161 -765q-117 250 -200.5 372t-137.5 122q-80 0 -283 -179.5t-385 -443.5zM110 1281q180 212 357 347.5t256 135.5q42 0 92.5 -51t122.5 -168q-52 259 -150 518.5t-247 532.5q-165 -235 -272 -562.5t-159 -752.5z M379 1996l123 37l51 450l57 -452l123 -41l-113 -50l19 -127l-84 119l-80 -131l18 139zM119 0v14l26 25q8 7 11.5 16t3.5 21v774q0 10 -3.5 18.5t-11.5 16.5l-26 24v15h213v-66l4 -2l67 68h139q197 -2 297.5 -108t100.5 -312v-428q0 -12 3.5 -21t10.5 -16l27 -25v-14h-258v14 l27 25q7 7 10.5 16t3.5 21v428q0 124 -55 189t-160 65h-4h-209v-682q0 -12 3.5 -21t10.5 -16l27 -25v-14h-258z" />
<glyph unicode="&#xf2;" horiz-adv-x="1157" d="M578 1068q45 537 170.5 938t335.5 682q214 -352 339 -726t161 -765q-117 250 -200.5 372t-137.5 122q-80 0 -283 -179.5t-385 -443.5zM641 1281q180 212 357 347.5t256 135.5q42 0 92.5 -51t122.5 -168q-52 259 -150 518.5t-247 532.5q-165 -235 -272 -562.5t-159 -752.5 zM910 1996l123 37l51 450l57 -452l123 -41l-113 -50l19 -127l-84 119l-80 -131l18 139zM66 461q0 213 143 349t369 136q225 0 368.5 -136t143.5 -349q0 -214 -143.5 -350t-368.5 -136q-227 0 -369.5 135.5t-142.5 350.5zM250 461q0 -146 89 -233t239 -87q149 0 239 87.5 t90 232.5t-90 232t-239 87q-150 0 -239 -87t-89 -232z" />
<glyph unicode="&#xf5;" horiz-adv-x="1157" d="M75 1068q45 537 170.5 938t335.5 682q214 -352 339 -726t161 -765q-117 250 -200.5 372t-137.5 122q-80 0 -283 -179.5t-385 -443.5zM138 1281q180 212 357 347.5t256 135.5q42 0 92.5 -51t122.5 -168q-52 259 -150 518.5t-247 532.5q-165 -235 -272 -562.5t-159 -752.5z M407 1996l123 37l51 450l57 -452l123 -41l-113 -50l19 -127l-84 119l-80 -131l18 139zM66 461q0 213 143 349t369 136q225 0 368.5 -136t143.5 -349q0 -214 -143.5 -350t-368.5 -136q-227 0 -369.5 135.5t-142.5 350.5zM250 461q0 -146 89 -233t239 -87q149 0 239 87.5 t90 232.5t-90 232t-239 87q-150 0 -239 -87t-89 -232z" />
<glyph unicode="&#xf9;" horiz-adv-x="1096" d="M550 1068q45 537 170.5 938t335.5 682q214 -352 339 -726t161 -765q-117 250 -200.5 372t-137.5 122q-80 0 -283 -179.5t-385 -443.5zM613 1281q180 212 357 347.5t256 135.5q42 0 92.5 -51t122.5 -168q-52 259 -150 518.5t-247 532.5q-165 -235 -272 -562.5t-159 -752.5 zM882 1996l123 37l51 450l57 -452l123 -41l-113 -50l19 -127l-84 119l-80 -131l18 139zM119 909v15h258v-15l-27 -24q-7 -8 -10.5 -16t-3.5 -19v-430q0 -137 50.5 -195.5t168.5 -58.5h209v684q0 10 -3.5 18.5t-10.5 16.5l-27 24v15h258v-15l-27 -24q-7 -8 -10.5 -16.5 t-3.5 -18.5v-774q0 -12 3.5 -21t10.5 -16l27 -25v-14h-213v66l-4 4l-68 -70h-139q-199 0 -298 104.5t-99 315.5v430q0 10 -3.5 18.5t-11.5 16.5z" />
<glyph unicode="&#x152;" horiz-adv-x="3332" d="M1821 692q0 131 35.5 246t105.5 211q49 67 112 120t138 91q66 33 142 47t225 14h706l-133 -243h-10l2 18v4q0 13 -10 21t-25 8h-530q-127 0 -211 -23t-142 -71q-92 -78 -139 -185.5t-47 -238.5q0 -139 46 -244.5t138 -177.5q65 -51 144.5 -72.5t218.5 -21.5h616 q13 0 23 4t22 14l39 33h17l-134 -246h-583q-202 0 -313.5 34.5t-209.5 115.5q-120 98 -181.5 235.5t-61.5 306.5zM2091 682l86 195h979l-131 -246h-12l2 20v4q0 12 -9.5 19.5t-25.5 7.5h-889zM76 711q0 165 66 307t194 252q99 85 237.5 130.5t298.5 45.5q161 0 299.5 -45.5 t237.5 -130.5q129 -110 194.5 -251.5t65.5 -307.5q0 -165 -66 -306.5t-194 -250.5q-100 -87 -238.5 -133t-298.5 -46q-159 0 -297.5 46t-238.5 133q-129 108 -194.5 249t-65.5 308zM295 711q0 -240 161 -392.5t416 -152.5t416.5 152.5t161.5 392.5q0 239 -161.5 391.5 t-416.5 152.5t-416 -152.5t-161 -391.5z" />
<glyph unicode="&#x153;" horiz-adv-x="2169" d="M1223 453q0 229 141 350t409 121h328l-315 -602h-183l230 436h-129q-143 0 -221 -76t-78 -215q0 -148 82 -224.5t241 -76.5h263q18 0 29.5 4t23.5 14l39 33l12 -6l-121 -211h-252q-233 0 -366 121t-133 332zM66 461q0 213 143 349t369 136q225 0 368.5 -136t143.5 -349 q0 -214 -143.5 -350t-368.5 -136q-227 0 -369.5 135.5t-142.5 350.5zM250 461q0 -146 89 -233t239 -87q149 0 239 87.5t90 232.5t-90 232t-239 87q-150 0 -239 -87t-89 -232z" />
<glyph unicode="&#x2dc;" horiz-adv-x="512" d="M-503 122q45 537 170.5 938t335.5 682q214 -352 339 -726t161 -765q-117 250 -200.5 372t-137.5 122q-80 0 -283 -179.5t-385 -443.5zM-440 335q180 212 357 347.5t256 135.5q42 0 92.5 -51t122.5 -168q-52 259 -150 518.5t-247 532.5q-165 -235 -272 -562.5t-159 -752.5 zM-171 1050l123 37l51 450l57 -452l123 -41l-113 -50l19 -127l-84 119l-80 -131l18 139z" />
<glyph unicode="&#x2000;" horiz-adv-x="1606" />
<glyph unicode="&#x2001;" horiz-adv-x="3212" />
<glyph unicode="&#x2002;" horiz-adv-x="1606" />
<glyph unicode="&#x2003;" horiz-adv-x="3212" />
<glyph unicode="&#x2004;" horiz-adv-x="1070" />
<glyph unicode="&#x2005;" horiz-adv-x="803" />
<glyph unicode="&#x2006;" horiz-adv-x="535" />
<glyph unicode="&#x2007;" horiz-adv-x="535" />
<glyph unicode="&#x2008;" horiz-adv-x="401" />
<glyph unicode="&#x2009;" horiz-adv-x="642" />
<glyph unicode="&#x200a;" horiz-adv-x="178" />
<glyph unicode="&#x2010;" horiz-adv-x="811" d="M66 332l139 237h432q14 0 25.5 5t25.5 18l43 35l14 -9l-135 -237h-434q-13 0 -23.5 -4.5t-25.5 -18.5l-45 -34z" />
<glyph unicode="&#x2011;" horiz-adv-x="811" d="M66 332l139 237h432q14 0 25.5 5t25.5 18l43 35l14 -9l-135 -237h-434q-13 0 -23.5 -4.5t-25.5 -18.5l-45 -34z" />
<glyph unicode="&#x2012;" horiz-adv-x="811" d="M66 332l139 237h432q14 0 25.5 5t25.5 18l43 35l14 -9l-135 -237h-434q-13 0 -23.5 -4.5t-25.5 -18.5l-45 -34z" />
<glyph unicode="&#x2013;" horiz-adv-x="1024" d="M66 324v303h892v-303h-892z" />
<glyph unicode="&#x2014;" horiz-adv-x="2048" d="M66 324v303h1916v-303h-1916z" />
<glyph unicode="&#x2018;" d="M43 -129q45 537 170.5 938t335.5 682q214 -352 339 -726t161 -765q-117 250 -200.5 372t-137.5 122q-80 0 -283 -179.5t-385 -443.5zM106 84q180 212 357 347.5t256 135.5q42 0 92.5 -51t122.5 -168q-52 259 -150 518.5t-247 532.5q-165 -235 -272 -562.5t-159 -752.5z M375 799l123 37l51 450l57 -452l123 -41l-113 -50l19 -127l-84 119l-80 -131l18 139z" />
<glyph unicode="&#x2019;" horiz-adv-x="334" d="M90 879v557h154v-557h-154z" />
<glyph unicode="&#x201c;" horiz-adv-x="643" d="M86 864v557h154v-557h-154zM403 864v557h156v-557h-156z" />
<glyph unicode="&#x201d;" horiz-adv-x="643" d="M86 864v557h154v-557h-154zM403 864v557h156v-557h-156z" />
<glyph unicode="&#x2026;" horiz-adv-x="1893" d="M1444 92q0 55 39.5 94t93.5 39t94 -39.5t40 -93.5q0 -55 -39.5 -95t-94.5 -40t-94 40t-39 95zM813 92q0 55 39.5 94t93.5 39t94 -39.5t40 -93.5q0 -55 -39.5 -95t-94.5 -40t-94 40t-39 95zM182 92q0 55 39.5 94t93.5 39t94 -39.5t40 -93.5q0 -55 -39.5 -95t-94.5 -40 t-94 40t-39 95z" />
<glyph unicode="&#x202f;" horiz-adv-x="642" />
<glyph unicode="&#x2039;" horiz-adv-x="1444" d="M23 33q0 86 29.5 160t88.5 137q-8 25 -12 52.5t-4 59.5q0 179 103.5 308.5t287.5 179.5q48 173 78 353t43 368q13 -192 42.5 -371.5t76.5 -349.5q178 -46 285.5 -176t107.5 -299q0 -29 -4.5 -59.5t-13.5 -61.5q67 -35 134.5 -53.5t125.5 -18.5q6 0 15 1t21 3 q-43 -75 -132.5 -119.5t-198.5 -44.5q-20 0 -44 2.5t-55 7.5q-75 -71 -166 -108t-194 -37t-195 35t-166 102q-75 -39 -128 -92.5t-82 -120.5q-21 24 -32 60.5t-11 81.5zM33 35q0 -36 7 -68t21 -57q73 131 209.5 201.5t324.5 74.5l-218 367q-41 -69 -153 -164 q-24 -20 -36 -31q-82 -73 -118.5 -149t-36.5 -174zM47 31q0 98 35 172.5t114 144.5l33 27q99 80 148 153l196 -329q-180 -10 -310.5 -76.5t-198.5 -183.5q-9 27 -13 49.5t-4 42.5zM150 442q0 -18 3 -41t9 -53l6 7q-5 21 -7.5 45t-2.5 55q0 154 94.5 273.5t253.5 166.5l2 6 q-168 -49 -263 -171t-95 -288zM164 453q0 -29 2.5 -51.5t8.5 -42.5q68 50 118.5 101t83.5 105l233 -387h-28q-70 0 -137 -14t-128 -41q67 -59 147 -89t171 -30t170.5 29.5t144.5 87.5q-66 21 -137.5 34t-150.5 19l233 391q39 -65 89.5 -118.5t111.5 -92.5q6 24 9 50t3 51 q0 152 -92.5 271t-247.5 163q19 -65 41.5 -128.5t48.5 -123.5l-221 -369l-223 369q29 67 52 130t40 122q-157 -47 -249.5 -165.5t-92.5 -270.5zM326 96q68 -52 146.5 -79t164.5 -27q85 0 162 26.5t147 79.5l-6 6q-67 -51 -141 -77.5t-152 -26.5q-92 0 -170 26t-145 78z M422 637l215 -356l213 356q-79 177 -132.5 407t-80.5 508q-27 -274 -81 -505t-134 -410zM438 637q77 180 127.5 392t71.5 444q21 -235 71 -447t126 -389l-197 -330zM674 180q87 -4 226 -36.5t198 -32.5q100 0 183.5 38.5t129.5 106.5h-6q-159 0 -290.5 76t-219.5 219z M696 193l199 331q81 -128 203.5 -199t283.5 -83q-45 -55 -122 -87t-162 -32q-63 0 -195 32t-207 38zM793 889q150 -54 236.5 -170.5t86.5 -263.5q0 -27 -3.5 -53t-10.5 -52l6 -4q7 24 10.5 51t3.5 58q0 151 -86.5 266.5t-242.5 173.5v-6z" />
<glyph unicode="&#x203a;" d="M43 -129q45 537 170.5 938t335.5 682q214 -352 339 -726t161 -765q-117 250 -200.5 372t-137.5 122q-80 0 -283 -179.5t-385 -443.5zM106 84q180 212 357 347.5t256 135.5q42 0 92.5 -51t122.5 -168q-52 259 -150 518.5t-247 532.5q-165 -235 -272 -562.5t-159 -752.5z M375 799l123 37l51 450l57 -452l123 -41l-113 -50l19 -127l-84 119l-80 -131l18 139z" />
<glyph unicode="&#x205f;" horiz-adv-x="803" />
<glyph unicode="&#x2122;" horiz-adv-x="3437" d="M1598 0l397 1470l518 -1093l504 1093l391 -1470h-260v14l25 25q5 5 8.5 14t3.5 19q0 5 -2 15t-6 23l-217 836l-457 -993l-477 983l-199 -825q-3 -11 -4.5 -20t-1.5 -17q0 -11 3 -20t9 -15l23 -25v-14h-258zM4 1184l127 237h1428l-134 -243h-10v22q0 13 -9 21t-24 8h-505 v-1153q0 -14 2.5 -22t9.5 -15l26 -25v-14h-288v14l26 25q8 7 11.5 16t3.5 21v1153h-570q-10 0 -19 -4t-24 -17l-39 -30z" />
<glyph unicode="&#xe000;" horiz-adv-x="925" d="M0 925h925v-925h-925v925z" />
<glyph unicode="&#xfb01;" horiz-adv-x="1088" d="M711 0v14l26 25q8 7 11.5 16t3.5 21v774q0 10 -3.5 18.5t-11.5 16.5l-26 24v15h258v-15l-27 -24q-7 -8 -10.5 -16t-3.5 -19v-774q0 -12 3.5 -21t10.5 -16l27 -25v-14h-258zM727 1149q0 46 32.5 78.5t80.5 32.5q46 0 79 -32.5t33 -78.5q0 -47 -33 -80t-79 -33 q-47 0 -80 33t-33 80zM14 758l76 166h70v139q0 141 82 218t231 77h145l-98 -213l-14 2v14q0 13 -7 22t-18 9h-41q-50 0 -77 -24.5t-27 -69.5v-174h229l-98 -213l-12 2v14q0 13 -8 22t-19 9h-92v-678q0 -13 4 -23t12 -18l25 -25v-14h-258v14l26 25q8 7 11.5 16t3.5 21v682 h-146z" />
<glyph unicode="&#xfb02;" horiz-adv-x="1088" d="M711 0v14l26 25q8 7 11.5 16t3.5 21v1208q0 10 -3.5 18.5t-11.5 16.5l-26 24v15h258v-15l-27 -24q-7 -7 -10.5 -15.5t-3.5 -19.5v-1208q0 -12 3.5 -21t10.5 -16l27 -25v-14h-258zM14 758l76 166h70v139q0 141 82 218t231 77h145l-98 -213l-14 2v14q0 13 -7 22t-18 9h-41 q-50 0 -77 -24.5t-27 -69.5v-174h229l-98 -213l-12 2v14q0 13 -8 22t-19 9h-92v-678q0 -13 4 -23t12 -18l25 -25v-14h-258v14l26 25q8 7 11.5 16t3.5 21v682h-146z" />
<glyph unicode="&#xfb03;" horiz-adv-x="1680" d="M1303 0v14l26 25q8 7 11.5 16t3.5 21v774q0 10 -3.5 18.5t-11.5 16.5l-26 24v15h258v-15l-27 -24q-7 -8 -10.5 -16t-3.5 -19v-774q0 -12 3.5 -21t10.5 -16l27 -25v-14h-258zM1319 1149q0 46 32.5 78.5t80.5 32.5q46 0 79 -32.5t33 -78.5q0 -47 -33 -80t-79 -33 q-47 0 -80 33t-33 80zM606 758l76 166h70v139q0 141 82 218t231 77h145l-98 -213l-14 2v14q0 13 -7 22t-18 9h-41q-50 0 -77 -24.5t-27 -69.5v-174h229l-98 -213l-12 2v14q0 13 -8 22t-19 9h-92v-678q0 -13 4 -23t12 -18l25 -25v-14h-258v14l26 25q8 7 11.5 16t3.5 21v682 h-146zM14 758l76 166h70v139q0 141 82 218t231 77h145l-98 -213l-14 2v14q0 13 -7 22t-18 9h-41q-50 0 -77 -24.5t-27 -69.5v-174h229l-98 -213l-12 2v14q0 13 -8 22t-19 9h-92v-678q0 -13 4 -23t12 -18l25 -25v-14h-258v14l26 25q8 7 11.5 16t3.5 21v682h-146z" />
<glyph unicode="&#xfb04;" horiz-adv-x="1680" d="M1303 0v14l26 25q8 7 11.5 16t3.5 21v1208q0 10 -3.5 18.5t-11.5 16.5l-26 24v15h258v-15l-27 -24q-7 -7 -10.5 -15.5t-3.5 -19.5v-1208q0 -12 3.5 -21t10.5 -16l27 -25v-14h-258zM606 758l76 166h70v139q0 141 82 218t231 77h145l-98 -213l-14 2v14q0 13 -7 22t-18 9 h-41q-50 0 -77 -24.5t-27 -69.5v-174h229l-98 -213l-12 2v14q0 13 -8 22t-19 9h-92v-678q0 -13 4 -23t12 -18l25 -25v-14h-258v14l26 25q8 7 11.5 16t3.5 21v682h-146zM14 758l76 166h70v139q0 141 82 218t231 77h145l-98 -213l-14 2v14q0 13 -7 22t-18 9h-41 q-50 0 -77 -24.5t-27 -69.5v-174h229l-98 -213l-12 2v14q0 13 -8 22t-19 9h-92v-678q0 -13 4 -23t12 -18l25 -25v-14h-258v14l26 25q8 7 11.5 16t3.5 21v682h-146z" />
</font>
</defs>
</svg>
